&title=Melodiniq
&artist=onoken a.k.a. owl*tree
&first=-1.21
&lv_5=1
&des_5=
&inote_5=
(96.6){4},,,1,
1,1,1,1,
1,1,1,1,
1,1,1,1,
1,1,1,1,
1,1,1,1,
1,1,1,1,
1,1,1,1,
1,1,1,1,
1,1,1,1,
1,1,1,1,
1,1,1,1,
1,1,1,1,
1,1,1,1,
1,1,1,1,
1,1,1,1,
{1}1,
E
&lv_6=15
&des_6=Fr4ctur3y2 a.k.a. uni
&inote_6=
(96.5){4},,,,E7h[4:3],
E6h[2:1],{2}E5h[4:1],
{4}E3h[4:3],E4h[2:1],{2}E5h[4:1],
{24}7,6,5,4,2,1,7,6,5,4,2,1,7,6,5/4,3,2/1,8,3/7,2,1/8,7,6/2,3,
{4}4/5h[4:1],7h[4:1],1h[4:1],3h[4:1],
{1}Ch[16:57],
{24},,,,,,,,,,,,,B2h[48:97],,,,,,,,,,,B7h[16:25],
{4},,,{16},,{24},E1h[48:29],
{1},5<4[16:37],
{4},B8,{8}E1,{16},,,,B7,B6,
{1}B5,
{64}8,7,6,5,4,3,2,1,{48}8,7,6,5,{24}4,3,2,1,8,7,6,{48},,,{16}5,{32}4,3,2,1,{48}8,7,6,{192}5,,,4,,,{64}3,2,1,8,7,6,5,4,3,2,
{8}A1f/D1/D2,{16}7/4,{32}6,5,6,5,{16}6,7/4,6/3,5/2,{32}3,4,{16}3,5/2,{32}3,4,{16}3,5/2,3/6,
4/7,{32}8,5,6,4,{16}7,{32}1,4,3,5,{16}2,{32}4,5,3,8,2,7,1,6,8,5,4,7,3,6,2,5,1,4,
{8}E1f,{32}3,4,2,6,5,7,3,4,2,6,5,7,4,3,2,1,8,7,6,5,7/4,8,1,2,3,4,5,6,
1,8,1,7,1,6,1,5,4,8,3,8,2,8,1,8,{64}1b,2,{32}3,8,1,{64}8b,7,{32}6,1,8,{64}1b,2,3,4,7b,6,5,4,{8}3b,
(193){4}5<8[16:3],1<6[16:3],5<8[16:3],1<6[16:3],
5<8[16:3],1<6[16:3],5,{16}5,4,3,2,
{4}1>4[16:3],{8}5>2[16:3],7,1>4[16:3],7,5>2[16:3],7,
1>4[16:3],7,5,7,{16}5,6,7,8,1/5,2/6,3/7,4/8,
{8}1/5,{16}2,3,{8}2,8/1,{16}7,6,{8}7,6/5,4/5-1-7-3[8:3],
,2,3,4,{4}4-8[8:1],4,
{8}6/1,{16}7,8,{8}7,2/5,{16}3-1-4[4:1],4,{8}3,5,5-2-4-8[8:3],
,8,7,6,{4}5-1[8:1],5/1w5[0.3109##0.1554],
{64}A8,A2,B8,B2,Cf,B4,B6,A4,{8}A6,{1},,,{4},,,{64}5,
4,{4},{16},,,{32},{8}6/3,{64},,,,,,,,,,,,,,,,7,2,{1},{16},{32},{64}1,
8,{4},{16},,,{32},{8}2/7,{64},,,,,,,,,,,,,,,,3,6,{1},{16},{32},{4}6h[2:1],
5,3h[8:5],{8}4,4,
,,,1h[8:1],8h[8:1],7h[8:1],6,6h[4:1],
,7h[4:1],,6h[8:1],5h[8:1],4h[8:1],3,4h[4:1],
,3h[4:1],,4h[4:1],,5h[8:1],6h[8:1],7h[8:1],
{4}8h[2:1],6,1h[8:5],{8}3,3,
,,,4h[8:1],7h[8:1],5h[2:1],4,4,
,,,5h[8:1],2h[8:1],4h[2:1],5,5,
,,,,{2}4w8[8:1],
{16}2b,6,2,6,{8}2,{16}7,8,7,6,{8}7,{16}1,2,3,4,
7,6,7,6,{8}7,{16}2,1,2,1,{8}2,{16}6,5,{8}4/7,
{16}8,1,8,1,{8}8,{16}3,4,3,2,{8}3,{16}8,7,6,5,
2,3,2,3,{8}2,{16}7,8,7,8,{8}7-4[8:1],5,4,
3,2,6/5,7,2/4,1,7/5,8,
{16}1,8,2,7,{24}3,4,5,6,7,8,{32}1,2,3,4,5,6,7,8,{48}1,2,3,4,5,6,7,8,1v4[12:7],2,3,4,
{1}5v8[2:1],
(98){32}A2/E8h[4:1]/B8h[4:1]/B7h[4:1],D3,A3,D4,{8}A4h[8:1],{32},B6,B5,B4,B3,B2,B1,B8,A1/E2,A2/E3,A3/E4,A4/E5,A5/E6,A6/E7,A7/E8,A8/E1,{16}A1h[4:1],Ch[16:3],{32}B2,B1,B8,B7,
,,A2,A3,{16}A4,{32}B7,B6,{16}B5h[16:3],C,,C,A2h[16:1],E6/B6/A6,A7h[16:1],E4/A3/B3,{24}E2,E8,B2,B7,,,{8}C,
{32}A8,D8,A7,D7,{8}A6h[8:3],{32}A4,D4,A3,D3,{6}A2h[8:1],{24}D7/D3,A7/A3,D8/D4,E8/E4,C,E6/E2,{12}D6/D2,
{48},,,{16}C,B2h[8:5],B3h[16:9],E3h[2:1],A3h[16:7],A2h[8:3],B7h[16:5],B6h[4:1],E7h[16:3],A6h[8:1],A7h[16:1],,,{8}A8/B8/A1/B1/B5/A5/B4/A4/Cf,
{32}A7/E2h[4:1]/B1h[4:1]/B2h[4:1],D7,A6,D6,{8}A5h[8:1],{32},B3,B4,B5,B6,B7,B8,B1,A8/E8,A7/E7,A6/E6,A5/E5,A4/E4,A3/E3,A2/E2,A1/E1,{16}A8h[4:1],Ch[16:3],{32}B7,B8,B1,B2,
,,A7,A6,{16}A5,{32}B2,B3,{16}B4h[16:3],C,,C,A7h[16:1],E4/B3/A3,A2h[16:1],E6/A6/B6,{24}E8,E2,B7,B2,,,{8}C,
{32}A1,D2,A2,D3,{8}A3h[8:3],{32}A5,D6,A6,D7,{6}A7h[8:1],{24}D3/D7,A2/A6,D2/D6,E2/E6,C,E4/E8,{12}D4/D8,
{48},,,{16}C,B5h[8:5],B6h[16:9],E6h[2:1],A6h[16:7],A5h[8:3],B2h[16:5],B1h[4:1],E2h[16:3],A1h[8:1],A2h[16:1],,,{8}A7/B7/A8/B8/B4/A4/B3/A3/Cf,
(206){32}1/5bh,2,3,4,5,6,7,8,{24}1/5bh,2,3,4,5,6,{16}7/3bh,8,1,2,{12}3/7bh,4,5,
6/2bh,7,8,{48}1/5bh,,,2,,,{16}3,4,{24}5/1bh,6,7,8,1,2,{32}3/7bh,4,5,6,7,8,1,2,
{8}A3f/D3/D4,{32}7,6,{16}5,{32}8,7,{16}6,{32}1,8,{16}7,{8}A6f/D7/D6,{32}2,3,{16}4,{32}1,2,{16}3,{32}8,1,{16}2,
{24}7,8,1,2,3,4,5/2,6/3,7/4,5,6,7,8/5,1/6,2/7,8,1,2,{4}3b/Cf,
(209){32}8/4bh,7,6,5,4,3,2,1,{24}8/4bh,7,6,5,4,3,{16}2/6bh,1,8,7,{12}6/2bh,5,4,
3/7bh,2,1,{48}8/4bh,,,7,,,{16}6,5,{24}4/8bh,3,2,1,8,7,{32}6/2bh,5,4,3,2,1,8,7,
{8}A6f/D7/D6,{32}2,3,{16}4,{32}1,2,{16}3,{32}8,1,{16}2,{8}A3f/D3/D4,{32}7,6,{16}5,{32}8,7,{16}6,{32}1,8,{16}7,
{4}A6f/D7/D6/3<6[8:1],3p6b[16:5]*>6[16:5],{32}A3,D3,A2,D2,A1,D1,A8,D8,A7,D7,{16}A6,{32},,,,(212)6x/1x-3[8:1],
5x,6x,5x,6x,5x,6x,5x,{24}6x/1x,5x,6x,5x,6x,5x,{16}6x/1x-4[8:1],5x,6x,5x,{12}6x/1x,5x,6x,
2x/5x-7[8:1],3x,2x,{48}3x/5x,,,2x,,,{16}3x,2x,{24}3x/5x-8[8:1],2x,3x,2x,3x,2x,{32}3x/5x,2x,3x,2x,3x,2x,3x,2x,
(215){4}3x-5[8:1],3-1[8:1]/7-3[8:1],3/7-5[8:1],2-6[8:1]/7-1[8:1],
7/2-4[8:1],7-3[8:1]/2-8[8:1],2/7-5[8:1],2/7,
(218){32}3,4,{16}6h[32:1],{32}3,4,{16}7h[32:1],{32}3,4,{16}8h[32:1],{32}3,4,{16}1h[32:1],{32}3,4,{16}2h[32:1],{32}3,4,{16}1h[32:1],{32}3,4,{16}8h[32:1],{32}3,4,{16}7h[32:1],
3h[32:1],{32}6,5,{16}2h[32:1],{32}6,5,{16}1h[32:1],{32}6,5,{16}8h[32:1],{32}6,5,{16}7h[32:1],{32}6,5,{16}8h[32:1],{32}6,5,{16}1h[32:1],{32}6,5,{16}2h[32:1],{32}6,5,
(221){16}3,5,3,5,3,5,3,5,4,6,4,6,4,6,4,6,
4,3,2,1,5,4,3,2,{4}6bw2b[8:1],A6f/D6/D7,
(224){32}3x/8x-6[8:1],4x,3x,4x,3x,4x,3x,4x,{24}3x/8x,4x,3x,4x,3x,4x,{16}3x/8xv5[8:1],4x,3x,4x,{12}3x/8x,4x,3x,
7x/4x-2[8:1],6x,7x,{48}6x/4x,,,7x,,,{16}6x,7x,{24}6x/4xv1[8:1],7x,6x,7x,6x,7x,{32}6x/4x,7x,6x,7x,6x,7x,6x,7x,
(227){8}2-4[8:1],2-7[8:1],2-6[8:1],2-8[8:1],2-5[8:1],2-6[8:1],2,2,
4b,{32}2,1,8,7,{8}3b,{32}1,8,7,6,{8}2b,{32}8,7,6,5,{8}3b,{32}8,7,6,5,
(230){24}1,8,1,8,1,8,2,7,2,7,2,7,3,6,3,6,3,6,4,5,4,5,4,5,
{32}3b,2,1,8,7,6,5,4,3b,2,1,8,7,6,5,4,3/8b,1,2,3,4b,5,6,7,8b-4[8:1],1,2,3,4b,5,6,7,
{1}8/4w8[8:11],
{4},,,,(236)E7/B6/B5/E5f/B4/B3/E3,
6/3,{8}6/3,5,4,5,
6/3,4,6/3,5,3/4,4/5,{4}6/5,
{64}E7,E3,B7,B2,B8,B1,{32}E1,,,,,{8}7/2,1,8,2-5[8:1]/7-4[1:1],,2b,
,8,1,1,2,2,3,3,
{4}E5f/B5/B6/E7/B4/B3/E3,3/6,{8}5/3v8[16:3],3/5,,7V13[4:1],
,4,{4}4,5v6[8:1],{8}3,4,
{64}E7,E3,B7,B2,B8,B1,{32}E1,,,,,{8}1,8,2,7pp4[4:3],3,6h[4:3],
,,,,,,,,8,
{16}3,4,{8}3-7[8:1],2,1b,8,6,5,
1,{16}6,5,{8}6-2[8:1],7,8b,1,3,4,
8,{16}3,4,{8}3-7[8:1],2,1b,8,6,5,
1,{16}6,5,{8}6,7,{16}8,1,2,3,4,5,6,7,
{4}Ch[8:1],E5f/B5/B6/E7/B4/B3/E3,{8}4/6v1[16:3],6/4,,2V86[4:1],
,5,{4}5,4v3[8:1],{8}6,5,
{64}E3,E7,B2,B7,B1,B8,{32}E1,,,,,{8}1/8,8/1,7/2,7/2,6/3,6/3,
{16}4,5,4,5,3,6,3,6,2,7,2,7,{4}E5f/B5/B6/E7/B4/B3/E3,
(240){64}E7,E3,B7,B2,B8,B1,{32}E1,,,,,{4}7b/2b,{12}6,5,4,3,4,5,
{16}6,5,4,3,2,1,8,7,6/2,3,4,5,6,7,8,1,
6-1[8:1],4,6,4,{4}6,{16}3-8[8:1],5,3,5,{4}3,
{16}7,6,1,2,7,6,2,3,{32}8b,7,{16}6,{32}1b,2,{16}3,{32}8b,7,{16}6,,,3v6[8:1],
8,3,8,{4}3b>6[16:3],{12}5/A2,4/D1,3/A7,{48}2,,,1,,,{16}8,7,
5,4,3,2,1,8,7,6,3,2,1,8,{4}7,
{24}6,5,6,5,6,5,{8}6b,{24}3,4,3,4,3,4,3b,,,{8}5h[8:1],4h[8:1],
E7/B7/B6,B2/B3/E3,{48}6,5,4,3,2,1,{8}8,B2/B3/E3,B7/E7/B6,{48}3,4,5,6,7,8,{8}1,
4,4/2,4/5,5/7-4[8:1],,7/8-3[8:1],,8/1-6[8:1],
,1/2-5[8:1],,2q3[4:1],{32},,,,,,,,,,,,,,,,8b/1,
7,6,5,{8}1b,{32},,,,1b/8,2,3,4,{4}8b,{32}7b/8,6,5,4,{8}8b,
{32},,,,2b/1,3,4,5,{4}1b,{32}8b/1bh,{128}7,2x,,,{32}3b/6bxh,5/4,,,,,{4}8b/1b,
{16}2,5,2,5,1,4,1,4,8,5,8,5,7,6,7,6,
{12}7,8,1,2,3,4,5/6,7,8,1,2,3,
{8}4/5,5/3,,5/4,{4}4/6,{8}4/3,2/4,
,5/6,{4}5/7,E5f/B5/B6/E7/B4/B3/E3,{64}E7,E3,B7,B2,B8,B1,{32}E1,,,,,{4}2xh[1:1],
{16}5,4,5,4,5,4,5,4,5,4,5,4,
{4}6xh[1:1],{16}4,5,4,5,4,5,4,5,4,5,4,5,
4,5,4,5,3,6,3,6,2,7,2,7,3,6,3,6,
1,8,1,8,2,7,2,7,4,5,4,5,3,6,3,6,
{4}E5f/B5/B6/B4/B3/E3/E7,{8}5-7[8:1],5-2[8:1],5-1[8:1],5-3[8:1],5-8[8:1],5-1[8:1],
5-7[8:1],5-2[8:1],5-1[8:1],5,{4}5,{64}E7,E3,B7,B2,B8,B1,{32}E1,,,,,{16}1,
8,1,8,{24}2,7,2,7,2,7,{32}3,6,3,6,3,6,3,6,{48}4,5,4,5,4,5,4,5,4,5,4,5,
{24}4h,3,2,1,8,7,6/2,5/1,4,3,2,1,8/6h,5,4,3,2,1,{32}8w4[4:9],7/1,6/2,5/3,4,3/5,2/6,1/7,
{1}8,
{8},,,,,,,,,,,,,,,,A7,
A6,A5,A4,A2,A1,E7,E6,
E5,E4,E2,E1,B7,B6,B5/B4,B3,
B2/B1,B8,B7/B3,B2,B1/B8,B7,B6/B3,B4,
{1}B5h[8:51],
E
