&title=HoYoHoYoにしてあげる♪
&artist=初音ミク x 銀狼 LV.999
&first=-0.02
&lv_5=14.0
&des_5=XLFOwO03
&inote_5=
(160){4},,1,{8}E4,1,
,1,E6,1,,1,E8,1,
{1}2qq5[0.75##1.875],
{8},,,,,,,,,6,
1>4[8:1],7,1,5,2,{16}7,8,
7,8,{8}7,{16}2,5,3,4,{8}2h[2:1],1,8,7,
6h[1:1],1,2,3,{2}4h[2:1],
{8},,5/3,2,4/6,8v5[8:1],1,8bxv3[8:1],
,8bx,7,6,5,3,7,{16}2,1,
2,1,{8}2,{16}1,8,7,6,{8}5h[8:1],2,4h[8:1],7,
{16}2,8,2,8,1qq5[2:1],7,1,7,{2}1b,
{8},,E6,E8,E4,E2,,1/8,
,E8/E2,E7/E3,E6/E4,,2-4[8:1],6,2,
,7V53[4:1],1,7/3V17[4:1],,7<3[4:1],,3>7[4:1],
,E6,E4,E2,8v3[8:1],7,8,7<4[8:1],
8,7,1,2,2/5,{16}3,4,{8}3,{16}6,5,
{8}6,7h[4:1]/4h[4:1],,,,1v6[8:1],7,1xv4[8:1],
,1x,,8-5[8:1],5-3[8:1],8,,1-4[8:1],
4-7[8:1],1,,1,8/2,{16}1-5[8:1],1,{8}1,1<6[8:1]*>4[8:1],
,1w5[8:3],,1,,,,,,2,
3/4,7,5bx/6bx,4,3/5,6,
7/5,3,4/2,7,8/6,2,1/3,8>2[8:1],
2v3[8:1],3<5[8:1],{4}5,{8}8bx,1,2/8,7,
6/1,2,3/7,6,5/3,{16}2,1,{8}2qq5[4:1],6x,
2,6x,7x,8x,1b,8,{48}1,E2,B2,B3,{24}E4,6,,,{8}5,
7,{48}5,E5,B4,B3,{24}E3,7,,,{8}8b,1,{48}8,E8,B7,B6,{24}E6,3,,,{8}4,
2,{48}4,E5,B5,B6,{24}E7,2,{48},,,,{16}8bx,4,8,4,6bx,2,6,2,
{32}6bx,5,4,3,2bx,1,8,7,6bx,5,4,3,2bx,1,8,7,{8}6bx/3bx,{16}2,8,{8}2,{16}7,1,
{8}7,1x/8x,{4}2bx/7bx,8-5q4[4:1],{8}8/1,2h[8:1],
,2,3/5,{16}6,5,{8}7,{16}3,4,{8}2,{16}1/7,2/6,
{8}3v8[8:1]/5v8[8:1],2/6,{4}5b/3b,{16}7x,8,7,8,{8}6x,2/5,
{16}3x,4,3,4,{8}2x-4[8:1],6,2x-8[8:1],6,2xqq5[8:3],6,
2x,6x,6x,7x,{4}8bs4[4:1]/1bz5[4:1],8/1,
{8},6/3,2/7,{16}1,8,{8}2,{16}7,8,{8}6,{16}2,4,
3,5,3,6,{32}3bx,4,5,6,7,8,1,2,{8}3x/Cf,5xh[8:1]/4xh[8:1],,7x/Cf,
{4}8xh[8:1]/1xh[8:1],{8}8/7,6/1,5/2,3,4/7,6,
4/5,{16}7/2,6/3,{8}4xqq1>4[8:5]/5xpp8<5[8:5],7x/2x,{2}4bx/5b,
{8},,3x/5x,2,6x/4x,7,8x-4[8:1]/2x-4[8:1],1,
{32}2-6[8:1]/8-6[8:1],B8,C,B4,,,,,2q8>1-5<1[4:5]/8p2<1-5>1[4:5],B2,C,B6,,,,,{2}2b/8b,
{16},,,,,,,,,,,,,,,,E4,
B3,B2,E2,E6,B6,B7,E8,{8}1h[4:3],6,5,4h[8:3],
,,,,5h[4:3],3,2,1h[8:3],
,,,,7h[4:3],5,4,3h[8:3],
,,,,2h[4:3],8,7,6h[8:3],
,,,,E7/E5,E8,{4}E1,
{8}E3/E5,E2,{4}E1,{8}E1/E5,E6/E2,E7/E3,E8/E4,
{16}E1,E2,E3,E4,E5,E6,E7,E8,{32}B1,B2,B3,B4,B5,B6,B7,B8,E2,E3,E4,E5,E6,E7,E8,E1,
A2,A3,A4,A5,A6,A7,A8,A1,2x,3x,4x,5x,6x,7x,8x,1x,{8}2x/6x,4,3x/7,5,
2x-5[8:1]/7x-4[8:1],8/1,{4}7b/2b,{16}8bx-5q4[4:1],,,1,{8}8bx,2h[8:1],
,2,5bx/3bx,{16}6,5,{8}7bx,{16}3,4,{8}2bx,{16}3/5,2/6,
{8}7bxv4[8:1]/1bxv4[8:1],8,{4}1bx/7bx,{16}2bx,4,3,5,4,6,5,6,
4bx,5,4,7,4,5,4,8,{8}4bxv7[8:1]*v1[8:1],{16}4,5,{4}4bx,
{8}8bxv5[8:1]*v3[8:1],6/2,{4}8bx,{8}8bxs4b[8:1]/1bxz5b[8:1],{16}2,7,{48}8bx/1bx,E8/E2,B7/B2,B6/B3,{6}E6/E4,
{8}8b/1b,{16}3,4,{8}1bx,{16}6,5,{8}8bx-4b[8:1],1bx-3[8:1],8bx-6b[8:1],1bx-5[8:1],
8bx-3b[8:1],1bx-6[8:1],8bx,1bx,5bxh[8:1],{16}4,4,{8}6xh[8:1],{16}3,3,
{8}7bxh[8:1],{16}2,2,8,7,6,5,3bx/4x,2,1,8,5bx,6,7,8,
{32}1bx,2,3,4,5,6,7,8,1bx,2,3,4,5,6,7,8,{8}5x/1bx-4[8:1],{16}5,5,{48}1bx-6[8:1],E2,B2,B3,{24}E4,5,{48},{16}5,
{48}1bx>4[8:1],E1,B8,B7,{24}E7,5,{48},{16}5,{32}1bx<6[8:1],A2,D3,A3,{16}5,5,{32}1bx,A8,D8,A7,{16}5,5,{32}1bx,2,3,4,5,6,7,8,
{8}1bx/5x,3x,4x/8bx,6x,{16}7bx,8,6,1,5bx,2,4,3,
1bx,2,8,3,7bx,4,6,5,{8}6bx<2[8:1],2x>6[8:1],{32}A6f,A7,A8,A1,A2,A3,A4,A5,
2bx,3,4,5,6,7,8,1,2x/8bx,7,6,5,4,3,2,1,{8}4x/8bx-5[8:1],{16}4,4,{48}8bx-3[8:1],E8,B7,B6,{24}E6,4,{48},{16}4,
{48}8bx<5[8:1],E1,B1,B2,{24}E3,4,{48},{16}4,{32}8bx>3[8:1],A7,D7,A6,{16}4,4,{32}8bx,A1,D2,A2,{16}4,4,8bx,7x,6x,5x,
{32}2bx,3,4,5,6,7,8,1,2bxqq5[2:1],3,4,5,6,7,8,1,{8}2bx,6bx,,6bx,
{16},,,,3bx,4,3,4,2bx,1,2,1,5bx,6,5,6,
{32}1bx,8,7,6,5,4,3,2,{8}8bx/1x,7bx/2x,3x/6bxq2[8:1],7,6/5bxp1[8:1],3,
5/8bxp4[8:1],7,8/1bxq5[8:1],2,8bx-6[8:1],6p3<8[2:1],2bx-7>4[8:3],2,
{2}2bx/Cf,{48}7bx,E7,B6,B5,{24}E5,2x,{48},{16}1x,{48}2bx,E3,B3,B4,{24}E5,6x,{48},{16}5x,
{48}6bx,E7,B7,B8,{24}E1,3x,{48},{16}4x,{48}3bx,E3,B2,B1,{24}E1,7x,{48},{16}8x,{48}7bx,E7,B6,B5,{24}E5,{48}2,E3,B3,B4,{24}E5,{16}8bx,1,{8}7/2,
{16}5bx/1bx,2/6,3/7,4/8,{4}5bx/1bx,{16}3bx,1,3,8,3bx,7,3,6,
8bx,6,1,6,2bx,6,3,6,{8}2bx-8[8:1],{16}6,5,{8}4x/2bx-4[8:1],{16}6,7,
2bx/8x,1,2,3,4bx/8bx,1/5,2/6,3/7,{8}8bx/4bx,7,1bx/5bx,2,
4/3bx,1,6bx/5,8,{24}2bx,3,4,8,7,6,1bx,2,3,7,6,5,
{32}2bxqq1>5[8:3],3,4,5,6,7,8,1,{4}2bx,{32}E7,B7,B8,E1,,,,,,,,,E3/E7,B2/B6,B1/B5,E1/E5,
,,,,,,,,{4}8xh[4:1]/1xh[4:1],{2}Cf/E5/A4/B4/D6/E6/D4/B5/A6/A3/B6/B3/E3/A5/D7/E7/A2/B2/A7/B7/D2/E2/B1/E1/B8/E8/D8/D3/D5,
E
