&title=Lament Rain
&artist=Ashrount vs. 打打だいず
&first=-0.5699998
&des=磷化锆
&des_5=磷化锆
&des_6=Zirconium
&lv_4=13+
&lv_5=14+
&lv_6=15
&inote_4=(200){4},,,,{1}1h[1:2]/Cf,
,4h[1:2],
,7h[1:3],
,8h[1:1],
{8},,,,6,5,{4}4/6,
{8}1h[4:1]/3h[4:1],,,6h[8:9]/8h[8:5],,,,,,,,,,,,,2h[4:1]/4h[4:1],
,,7h[8:5]/5h[8:9],,,,,,,,,,,,,{4}3,
3,3,3,
2,2,2,2,
{8}1,1,1,1,{16}1,8,1,8,1-5V37V15[8:7],8,1,8,
{1}1h[1:1],
{4},7h[4:1],{8}5,4/6h[4:1],,3,
{4}2/5h[4:1],{8}2,1/4h[4:1],,1,1,4,
2,2,6,6,{16}3,4,{8}3,{16}6,5,6,5,
{4}7h[2:1],,,8w4[8:1],
{8},,,2/6,2h[8:1]/6h[8:1],,,8b/4b,
,5b/2b-8[8:1],,,6,6,{4}5bh[8:1],
{8}4,5/3h[4:1],,6,7h[4:1],B5/B4,B3/E4,8V64[4:1],
,,,1,{4}4x/2b-5[8:1],2xw6[8:1],
{8},,,8,8h[4:1],B5/A5,B4/A4,7V53[4:1],
,1,,8,{4}1V37[4:1],4,
{8}6h[12:11],,,8,{6}8,1,2,
3h[2:1],5,6,7h[8:3],{12},{4}4w8[8:1],
{8},,,6/2,6h[8:1]/2h[8:1],,,4b/8b,
,1b/6b-4[8:1],,,2,2,{4}1bh[8:1],
{8}8,1/7h[4:1],,2,3h[4:1],B1/B8,B7/E8,4V28[4:1],
,,,5,{2}8x/6b-1[8:1],
{4}3h[8:3],{8}5,5h[8:3],,7,{4}7h[16:5],
{8}1,1h[16:5],,3,3h[8:1],8,4h[8:1],6,
{1}4/7h[2:3],
{4}3h[2:1],,,2/6,
{16}3,4,{8}3h[8:1],{16},,5,4,{4}5h[8:1],{16}3,4,{8}2h[8:1],
{16},,5,4,{4}6h[8:1],{16}3,4,3,4,{4}2h[8:1],
{16}6,5,{8}6h[8:1],{16},,4,5,{4}4h[8:1],{16}6,5,{8}7h[8:1],
{16},,4,5,{4}3h[8:1],{16}6,5,6,5,7,4,{8}7,
3,3,2-5[8:1],2,{4}7h[4:1],{8}4-7[8:1],4,
{4}8h[4:1],{8}6-1[8:1],6,{2}5h[4:1],
{4}2h[4:1],{8}5,6/4h[4:1],,8-4[8:1],,8/3,
,2,2,1h[8:3],4,4,5,5,
{4}6h[4:1],4,{6}7,5,7,
{8}4,5,4,{24}6,,4,,6,{48},,{16}3,5,3,5,3,5,
{2}4bw8[8:1],{4}6h[4:1],8,
{16}1h[8:1]/5h[8:1],,,1h[8:1]/5h[8:1],,,{8}2h[8:1],{2}6-8[8:1],
{4}4b,{16}3,5,{8}3h[16:1],{16}6,4,{8}6h[16:1],3,3h[8:1],
{16},,,,6,5,{8}6h[16:1],{16}3,4,3,4,{8}2,2h[8:1],
{16},,,,6,4,{8}6h[16:1],{16}3,5,{8}3h[16:1],6,6h[8:1],
{16},,,,3,4,3,4,3<3[1:2],4,{8}3h[16:1],5,5h[8:15],
,,,,,,,,,,,,,,,,6,
6,4,4,5,5,3,3,
4xh[16:1]/6xh[16:1],4xh[16:1]/6xh[16:1],6xh[16:1]/4xh[16:1],6xh[16:1]/4xh[16:1],{2}6bh[2:1]/4bh[8:3],
{16}3h[8:1],,,4h[8:1]/2h[8:1],,,{8}4h[8:1]/2-4[8:1],{16},,,,6h[8:1],,,7h[8:1]/5h[8:1],
,,{8}7h[8:1]/5h[8:1],{16},7h[8:1]/5h[8:1],,,{2}7-2[8:1],
{16}1h[8:1],,,2h[8:1]/8h[8:1],,,{8}8h[8:1]/2-8[8:1],{16},,,,6h[8:1],,,7h[8:1]/5h[8:1],
,,{8}7h[8:1]/5h[8:1],{16},7h[8:1]/5h[8:1],,,{2}4-8[8:1],
{16}7h[8:1],,,8h[8:1]/6h[8:1],,,{8}8h[8:1]/6-8[8:1],{16},,,,2h[8:1],,,1h[8:1]/3h[8:1],
,,{8}1h[8:1]/3h[8:1],{16},1h[8:1]/3h[8:1],,,{2}1-5[8:1],
{12}3,3h[6:1]/5h[6:1],,,,6/4,,7,5,7h[6:1],,1b,
,,{6}3h[6:1],1,{12}4,6,4,7w3[8:1],{4},{16},,{24},{16}1,
,,6h[16:3],,,{8}5,4h[8:1],7,
,6,3,2-4[8:1],,,{4}1,
3h[4:1],{16}8,,,3h[16:3],,,{8}4,5h[8:1],2,
,3,6,7-5[8:1],,,{4}8,
1h[8:1],1h[8:1],2h[8:1],2h[8:1],
{8}3,3,3,3,4,4,4,4,
5,5,6,6,{16}4,5,4,5,4<5<6<7>8>1>2>3[1:1],5,4,5,
,,,,,,,,,,,,,,,,{1}Cf,
8h[2:1],
B5,
3h[2:1],
E6,
4h[2:1],
B1,
6h[2:1],
8q8[4:29],
3h[2:1],
C,
5h[2:1],
Ch[1:3],
,,{4},,{8}1-5[8:1],
1,,,{4}Cf,
{8}8h[8:1],4,7h[8:1],3,6h[8:1],2,
1h[8:1],5,2h[8:1],6,3h[8:1],7,4h[8:1],8,
3,3,7h[8:1],2,6,6,{16}3,3,{8}8,
8,4,4,{16}6-1b[4:1],6,{2}3h[8:1],
{8}2h[8:1],1,3h[8:1],1,4h[8:1],1,5h[8:1],1,
{16}5,1,5,1,5,1,5,1,4,8,4,8,4,8,4,8,
{1}3bh[1:1],
Cfh[1:1],
{4}1bh[4:1],{8}8,8,3h[8:1],{16}6,5,{8}6,7,
8-4[8:1],8,4,3,2-5[8:1],2,5,6,
{4}8bh[4:1],{16}5,7,{8}5,4h[8:1],{16}6,5,{8}6,7-4[8:1],
4,3,2,1,1h[8:3],4,4,5,
{4}6bh[4:1],{16}4,7,{8}4,{4}8h[4:1],{16}1,7,{8}1,
{4}6h[4:1],4h[4:1],2h[4:1],{8}3,1/4,
{16}8h[8:1]/4h[8:1],,,7h[8:1]/4h[8:1],,,{8}6/4,{16}6h[8:1]/3h[8:1],,,6h[8:1]/2h[8:1],,,{8}6/1,
{16}7,8,{8}7,6-1[8:1],6,,2,{4}3-5[8:1],
8bh[4:1],{8}4,4,6h[8:1],{16}3,4,{8}3,2,
1-5[8:1],1,5,6,7-4[8:1],7,4,3,
{4}1bh[4:1],{16}4,2,{8}4,5h[8:1],{16}3,4,{8}3,2-5[8:1],
,2/5,6,7,8h[4:1],5,4,3,
{4}6/2h[4:1],{16}5,3,{8}5,{24}4,6,4,6,,,{8}3,3,
{4}2/6h[4:1],{16}3,5,{8}3,{24}4,2,4,2,,,{8}5,5,
{4}6/4h[4:1],{16}7,5,{8}7,{24}6,8,6,8,,,{8}5,5,
7h[8:1],4,{16}3,5,3,5,3,2,1,8,7,6,5,4,
{1}3h[4:7],
{2},,8-4[8:1],
{4}3-7[8:1],B5,
{2}6-1[8:1],{8}2-5[8:1],8,8,8,
{16}7,5,7,5,{8}8h[8:1],{16}3,5,3,5,{8}2h[8:1],{16}6,4,6,4,
{8}7h[8:1],1h[8:1],{16}4,2,4,2,5,3,{8}5,{16}4,6,4,6,
{8}2h[8:1],{16}7,5,7,5,{8}8h[8:1],{16}2,4,2,4,{8}1h[8:1],7h[8:1],
{16}8,1,2,3,{8}4h[8:1],8,{16}6,4,6,4,{8}5h[8:1],{16}2,4,
2,4,{8}1h[8:1],{16}7,5,7,5,{8}6h[8:1],2,{16}5,4,3,2,
1,8,7,6,3,4,2,4,{8}1h[8:1],{16}5,4,6,4,{8}7h[8:1],
{16}3,4,2,4,{8}1h[8:1],5,{16}6,4,6,4,7,5,7,5,
{8}8,8,2b,{16}6,5x,{8}6,2bx,{16}6,5x,{8}6,
{16}1bx,5,4x,5,2bx,5,3x,5,4x,6,4x,6,{24}4,5,4,5,4,5,
{1}3bh[1:8],
,B7/E7/B6,
,B2/B3/E3,
B4,
B6,
A6,
{32}Ch[4:11],,,,,,,,,,,,,,,,,,,,
E
&inote_5=(200){4},,,,{32}3b<3[4:7]/7b<3[8:7],
E4f/E8f,B4`B8,B5`B1,{8}E6`E2,,,,,,,,,,,,,,,{1}6>6[4:7],
,2<2[4:7]*>6[8:7],
,8>8[8:9],
{2}3h[2:1],{32}D2,D3,D4,D5,D6,D7,D8,D1,E2,E3,E4,E5,E6,E7,E8,E1,
{4}2xh[4:1],{8}4,5x/1h[8:3],,,{4}8<5V71[1:1],
,,,,3xh[4:1],
{8}4,2x/5h[8:3],,,{4}1>2-4>3-8[1:1],
,,,,3,
4,5,6,
2,3,4,5,
{8}1,1,4,4,{16}2,6,2,6,{24}3,4,5,6,7,8,
{4}5h[1:1]/1h[8:5],,,1>2-4[4:1],
,8xh[4:1],{8}5,5xh[4:1],,4,
{4}4xh[4:1],{8}3,3xh[4:1],,4,2/4xh[8:1],1x,
{4}2/5xh[8:1],3/6xh[8:1],{16}7/3,8,1,2,{32}4,5x,6x,7x,8x,1x,2x,3x,
{4}4xh[2:1]/8h[4:3],,,2b,
2x/6xh[4:1],{16}2,3,{8}4,{4}8h[8:1],{8}8/4,3-1[8:1],
,3/5-7[8:1],,8,1V75[4:1],2,{4}1/3h[8:1],
{8}1,1h[4:1],{24},,,5,6,7,{8}3h[8:1],E1/B8/B1,B5/E5/B4,7-4-7[4:1],
{16},,,,,,1,2,{4}3>8>3[4:1],5/3,
{8}7h[8:3],{24},,,,,,3,4,5,{8}1h[8:1],B4/B5/E5,E1/B8/B1,3-1[8:1],
,3/5,,7V53-1[8:3],6h[4:1],,,7,
8h[8:3],{24},,,,,,4,3,2,{6}1h[6:1],5,{12}6,4,
{6}7h[6:1],3,{12}2,5,{2}2h[4:1]/4-8-4[4:1],
{4}1xh[4:1],{16}5,6,{8}7,{4}3h[8:1],{8}3/5,6-8[8:1],
,6/4-2[8:1],,1,8V24[4:1],7,{4}8/6h[8:1],
{8}8,8h[4:1],{24},,,4,3,2,{8}6h[8:1],E1/B1/B8,B4/E5/B5,2-5-2[4:1],
{16},,,,,,8,7,{4}6<1<6[4:1],4/6,
2h[4:1],{8}6,1h[4:1],,5,{4}2h[4:1],
{16}6,6,{8}3h[4:1],{16},,7,7,{8}4h[8:1],8,{24}5,7,5,7,{48},{16}5,
{1}6h[4:5],
{2}Cfh[4:3],8-4[8:1],
{16}3,5,{8}3,7,{16}4,6,{8}4,8,{16}5,7,{8}5,
1,{16}4,6,{8}4,8,{16}3,5,3,5,4,6,{8}4h[8:1],
{16}7,5,{8}7,3,{16}6,4,{8}6,2,{16}5,3,{8}5,
1,{16}4,3,{8}4-1[8:1],5h[8:3],{4}4,8,
{16}1,2,3,4,5/1,6,7,8,{4}5/1h[4:1],{16}5,6,7,8,
{4}1/5h[4:1],{16}1,8,7,6,{8}5/3h[4:1],5,4-2[8:1],5,
{4}4/6b,{8}7b,8b-4[8:1],,2b-4[8:1]/8-5[8:1],,8b/2-6[8:1],
,2b/6,7,8,8/4,3,2/6,5/2,
{4}1>4[8:1],1/4,{6}6,5,7,
{8}4,5,3,{24}6,,5,,7,{48},,{16}4,6,4>6[4:1],6,{24}3,5,3,
,,,,,,{4}Cf,3-6[8:1],3/8,
{16}7h[8:1]/5h[8:1],,,4h[8:1]/8h[8:1],,,{8}3/7h[8:1],{4}2-4[8:1],5,
1b,{16}3,6,3,5,3,6,3,5,{8}2b,2bh[4:1],
{16},,,,8,1,8,2,8,3,7,4,{8}6bh[8:1],{16}5b,5b,
{4}7bh[4:1],{16}8,6,1,7,8,6,1,7,{8}2b,2bh[4:1],
{16},,,,3,5,2,4,3,5,{8}2h[8:1],6b,8bh[16:17],
2,2,3,3,4,5,6,7,
1,8,7,6,5-7[8:1],4,3,{16}2,2,
8,3,8,3,8,2,8,2,8,3,8,3,8,2,8,2,
1,1,1,1,1,1,1,1,{2}1h[2:1],
{32}2b,3,4,5,,,1b,2,3,4,,,1b,2,3,4,{6}8bh[8:1],{24}7,6,{16}5h[8:1],,,4h[8:1]/6h[8:1],
,,{8}2h[8:1]/5h[8:1],{16},7h[8:1]/4h[8:1],,,{2}4b>1[8:1],
{32}7b,6,5,4,,,8b,7,6,5,,,8b,7,6,5,{6}1bh[8:1],{24}2,3,{16}4h[8:1],,,5h[8:1]/3h[8:1],
,,{8}7h[8:1]/4h[8:1],{16},2h[8:1]/5h[8:1],,,{2}8b<5[8:1],
{32}1b,2,3,4,,,2b,3,4,5,,,3b,4,5,6,{6}7bh[8:1],{24}6,5,{16}4h[8:1],,,3h[8:1]/5h[8:1],
,,{8}1h[8:1]/4h[8:1],{16},6h[8:1]/3h[8:1],,,{2}3b>8[8:1],
{12}7x,7xh[12:1],,2xh[12:1]/5h[12:1],,4h[12:1]/6xh[12:1],,3xh/5h,3h/5xh,2xh[6:1],,8b,
,,{6}6xh[12:1]/4h[12:1],7h[12:1]/3xh[12:1],{24}2xh[48:1],8xh[48:1],2xh[48:1],{192}D8,,,A7,,,{64}D7,A6,D6,A5,{32}D5,{4}1xw5[8:1],
{8},,7-1[8:1],{16}6,7,,,{8}5-1[8:1],4,5,
,3,6,8-4[8:1],,8/7,{4}6h[4:1],
1,{8}2-8[8:1],{16}3,2,,,{8}4-8[8:1],5,4,
,6,2,1-5[8:1],,1/2,{4}3h[4:1],
{8}6h[8:1],4,7h[8:1],5,8h[8:1],4,7h[8:1],3,
6h[8:1],2,5h[8:1],3,{16}6,6,{8}4,{16}7,7,{8}5,
8,8/5,4,4/7,{16}7,3,6,2,5<6<7>8>1>2>3<4[1:1],1,4,8,
,,,,,,,,,,,,,,,,{1}Cf,
1h[2:1]/E8,
C,
2h[2:1]/B4,
{2}B1,3h[2:1],
C,5h[2:1],
7h[2:1],1h[2:1],
B7,5<5>5<5>5[0.6##8.7],
{1},{48}E5,
A5,{1},{4},,,{16},,,{48},B6,
E6,{1},{4},{16},,,{48},{2}Ch[1:3],
{48}B3,E3,{1},{4},,,{16},,,{48},B1,
E1,{4},{16},,,{48},{8}5-1[0.6##0.15],5h[8:3],{64},,,,,,,,,,,,,,,,,B5,
Cf,B1,,,,,,,,,,,,,{4}2h[8:1],3h[8:1],4h[8:1],
2h[8:1],3h[8:1],4h[8:1],5h[8:1],
{8}6,6,8,8,3,3,5,{24}5,6,7,
{8}8/4,3,3,{24}3-7[8:3],2,1,{2}8/5,
{8}1,1,E7/B6/A6/E6,1,8,8,E4/B3/B4,8,
{16}2,6,2,6,3,7,3,7,{32}4,5,6,7,8,1,2,3,4,5,6,7,8,1,2,3,
{1}4h[2:1]/8h[2:1],
{2}Cfh[1:1],E1/E5,
{32}B1/B5,B2`B6,B3`B7,B4`B8,,,,,{8}8xv3[8:1],3-6[8:1],8,2,2x-5[8:1],1,
2/8<5[8:1],7,8,4,3-7[8:1],2-8[8:1],3,2,
{32}Cf/B1/B5,B2`B6,B3`B7,E4`E8,,,,,{8}8xv6[8:1],6-1[8:1],4-2[8:1],2-5[8:1],{4}4x,
{8}8pp6[8:3],8,{4}8/3-8[8:1],3,{8}1-5[8:1]/7-4[8:1],2/6,
{4}7/1-3[8:1],{8}8-4[8:1]/1V35[4:1],7,{4}8/1,{16}6-2[8:1],7,8,1,
{4}2-5[8:1],5-8[8:1],7-4[8:1],{8}7,{16}1,1,
5h[8:1]/2h[8:1],,,6h[8:1]/4h[8:1],,,7,7,8h[8:1]/3h[8:1],,,5h[8:1]/1h[8:1],,,{8}6/2,
{16}3,5,{8}3qq8[8:3],4/6,3,8>4[16:3],7,{4}7,
{32}Cf/E4/E8,E7`E3,E6`E2,E5`E1,,,,,{8}8x-4[8:1],4-2[8:1],5-7[8:1],7-1[8:1],{4}5x,
{8}3-8[8:1],4,3/7<4[8:1],6,7/1-7[8:1],2-6[8:1],1,2,
{32}Cf/E1/E5,E8`E4,E7`E3,E6`E2,,,,,{8}1x-4[8:1],4V28[4:1],5,6,7x,7pp5[8:3],
,7/2-4[8:1],,2-8[8:1],,2-6[8:1],5,2/6,
{4}7h[4:1],{16}5,8,5,8,{24}4/7,3/6,5/2,1,,,{8}8/4,8/4,
{4}4/8h[4:1],{16}4,1,4,1,{24}5/2,6/3,7/4,8,,,{8}1/5,1/5,
{4}5/1h[4:1],{12}8h,6h,8h,{24}5/7,6/4,5/3,2,,,{8}1,1,
{16}2,4,2,4,3,5,3,5,{32}4x/E7,E8,E1,E2,E3,E4,E5,E6,4x/B6,B7,B8,B1,B2,B3,B4,B5,
{1}4xh[4:7]/B6f/E7/B7/A7/D7,
{8},,,,,,7,7,
{2}6h[4:1]/2h[4:3],8h[4:3],
4h[4:3],2h[4:1],
{8}8-2[8:1],{16}7,1,{8}6,5-3[8:1],{16}6,4,{8}7,8-2[8:1],{16}7,1,
{8}6,5h[4:1],{16}4,3,2,1,8,1,2,3,{8}4-6[8:1],{16}3,5,
{8}2,1-7[8:1],{16}2,8,{8}3,4-6[8:1],{16}3,5,{8}2,1h[4:1],
{16}7,6,5,4,3,4,5,6,{8}7-1[8:1],{16}6,8,{8}5,4-2[8:1],
{16}5,3,{8}6,7-1[8:1],{16}6,8,{8}5,4h[4:1],{16}2,1,8,7,
6/4,7/5,8/6,1/7,{8}2-4[8:1],{16}1,3,{8}8,7-5[8:1],{16}8,6,{8}1,
2-4[8:1],{16}1,3,{8}8,8,{16}7,5,8,3,6,4,7,2,
5,3,6,1,{8}7-5[8:1],{16}7,7,{8}7,4-2[8:1],{16}4,4,{8}4,
{16}4x,5,6,7,6b,5,4,3,4bx/8,5bx/1,6bx/2,7bx/3,{32}4<4V28V64<5<6<8>1>2>3<5<6[1:11]*-8b[8:1],5,6,7,8,1b/7b,2b/6b,3b/5b,
{1}4bx,
,2h[1:1],
,4h[1:1],
,8h[1:1],
,Ch[4:11],
E
&inote_6=(200){4},,{2}Cfh[2:1],
{32}E1/E5`E2,E6`E3`E7,D4`D8,4x>8V26[8:15]`8x<4-6b[16:21],{1},{4},,,{16},,{1}7V53<7[32:61],
,3V17>3[4:7]*<7[4:3],
,8V64<8[8:9],
{2}3h[2:1],{32}D2,D3,D4,D5,D6,D7,D8,D1,3/D2,4,5,6,7,8,1,2,
{4}3bh[4:1],{8}4b-7b[8:1],5b/2bh[8:3],,,,,{2}8h[2:1],
{16}6h[8:3],,,,,,,6b,
{4}4bh[4:1],{8}3b-6[8:1],2b/5bh[8:3],,,,,{2}7h[2:1],
{16}1h[8:3],,,,,,,1b,
{4}3bh[8:1],4h[8:1],5h[8:1],6h[8:1],
2bh[8:1],4h[8:1],5h[8:1],7h[8:1],
{8}1b,1,4,4,{16}2,5,2,5,{24}3qq1s5>1V75b[4:5]*pp5z1<5[1:1],4,3,4,3,4,
{1}3b,
{4},8bh[4:1],{8}5,5b/7bh[4:1],,4,
{4}4b/6bh[4:1],{8}3,3b/5bh[4:1],,2,2b/4bh[8:1],1b,
5bh[8:1],2,6bh[8:1],3,{16}7b,4,8b,5,{32}8b-4[1.2##0.15],1,2,3,4,5,6,7,
{4}8h[2:1]/4h[2:1],,,8b,
{8}1bh[4:1],{24},,,,,,2,3,4,{4}8h[8:1]/5V31[4:1],{8}8,6h[8:1],
,4h[4:1]/8h[4:1],,,1-5-1[4:1],2,1/3,4b,
3,3h[4:1],{24},,,8,7,6,{8}1/5,1>4[8:1],5,6h[2:1],
{24},,,D6/A5,{48}D7,A7,D8,A8,D1,A1,D2,A2,D3,A3,{8}D4,{4}1-7v6-4[4:1],1/4,
2bh[4:1],{8}4,{24}1,2,3,{8}7/4,8-5[8:1]*-6[8:1],8,8-3[8:1]*-2[8:1],
,8,,5,{4}7h[8:1]/3h[8:3],{8}1>7[8:3],1,
1,{24},,,,,,8,1,2,{12}3h[12:1],7,{6}7/3h[12:1],{12}8,8,
1h[12:1],4,{6}4/1h[12:1],{12}5,5,{6}6/3h[12:1],{12}4,7,{24},{8}2b,
6h[4:1]/4h[4:1],{24},,,,,,3,2,1,{8}5/8V24[4:1],5h[8:1],,6bh[8:1],
,7h[4:1]/3bh[4:1],,,8-4[8:1],4-8[8:1],8/4,3,
2,2h[4:1],{24},,,7,6,5,{8}1/4,1<6[8:1],8,3h[2:1],
{24},,,D4/A4,{48}D3,A2,D2,A1,D1,A8,D8,A7,D7,A6,{8}D6,{4}1bh[4:1]/4-8-4[4:1],{8}4,3,
{4}2h[4:1],{8}6,1/5h[4:1],,2,{4}7h[4:1]/3h[4:1],
{16},6/2,{8}5/1h[4:1],{16},,5,6/2,7/3,4,{8}5/7h[8:1],{24}4h,6h,4h,6h,{48},{16}3,
{1}5/2h[4:5],
{2}6bh[4:3],8-4[8:1],
{16}3,5,4,7,{8}5,{16}4,6,5,8,{8}6,{16}5,7,5,8,
{8}6,{16}5,6,4,7,{8}5,{16}3,5,3,5,4,6,{8}4h[8:1],
{16}7,5,7,3,{8}5,{16}6,4,6,2,{8}4,{16}5,3,5,1,
{8}3,{16}4,3,{8}4-1[8:1],5,4/6,7,{16}8,7,6,5,
1,2,3,4,5/1,6,7,8,{4}5/1h[4:1],{16}8,2,8,2,
{4}3/7h[4:1],{16}4,6,4,6,{8}5/3h[4:1],5,4-2[8:1],5,
{4}4/6b,{8}7b,3b/8b-4[8:1],,2bv5[8:1]/8b-5[8:1],,8b/2b>5[8:1],
{24},,,6b/2b,7,8,{8}1,1,8/4,3,2/6,5/2,
{4}1/4<7[8:1],4/2,{6}8h[12:1]/4h[12:1],7h[12:1]/5h[12:1],6h[12:1]/4h[12:1],
{8}5h[12:1]/3h[12:1],5h[12:1]/3h[12:1],3h[12:1]/5h[12:1],{24}6h[12:1],,2,,7h[12:1],{48},,{16}2,3,4>6[4:1],8/5,{24}7,6,5,
,,,,,,{4}Cf,{16}8,7,6,5,{4}1/4h[8:1],
{6}2h[12:1]/5h[12:1],3h[12:1]/5h[12:1],6h[12:1]/4h[12:1],7h[4:1],{24},,4-8b[8:1],3,2,1h[8:1],,,{4}4b,
{16}2,7,2,6,4,6,3,5,{8}1b,1bh[8:1],
{4}5b,{16}8,1,8,2,8,3,7,4,{8}6bh[8:1],{16}5b,5b,
{4}7bh[4:1],{16}4,5,4,6,3,7,3,5,{8}1b,{16}4b,4b,
{4}3bh[8:1],{16}5,2,6,1,5,3,4,2,5b,6b,{8}7bh[4:7],
2,2,3,3,4,5,6,8,
1,1,3,3,5,5,7,{16}7/1,2,
3,8,3,8,3,1,3,1,3,8,3,8,3,1,3,1,
2b,2b,2b,2b,2b>1[16:7],2b,2b,2b,{2}2b,
{16}5bh[8:1],,,6h[8:1]/4bh[8:1],,,{8}6b/4,{16}8b,{32},,,,3b/7,2b/6,{16}1bh[32:5]/5h[32:11],{32},,,,2,3,
{8}4h[32:9],{32}6,7,{16}8h[32:3],{32},,3/7,2/6,{8}5h[32:3]/1h[32:3],{32}2/6,3/7,4/8h[8:1],5,6,7,,1,2,3,{16}4h[16:1],{48},,{24}7b,6b,
{16}5bh[8:1],,,2bh[8:1]/4h[8:1],,,{8}4b/2,{16}8b,{32},,,,5b/1,6b/2,{16}7bh[32:11]/3h[32:5],{32},,,,2,1,
{8}8h[32:3],{32}6/1,5/2,{16}4h[32:3]/3h[32:13],{32},,5,6,{8}7h[32:3],{32}6,5,{16}4,{32}2,1,8,7,6,5h[32:3],,,,1b,2b,3b,
{16}4bh[8:1]/6h[8:1],,,7bh[8:1]/3h[8:1],,,{8}3b/7,{16}1b/5b,{32},,,,6b,7b,{16}8bh[32:5]/4h[32:5],{32},,,,7/3,6/2,
{8}1h[32:3]/5h[32:9],{32}2,3,{16}4h[32:3],{32},,3/6,7/2,{8}8h[32:3]/1h[16:5],{32}7,6,5,4,3,2,,8,7,6,{16}5h[32:1],{24}1b,2b,3b,
{32}5/4,,,6bh[12:1],{96},,,,,,,,,,,,{12}2bh[12:1]/5h[12:1],,4h[12:1]/7bh[12:1],,3bh/5h,3h/5bh,2bh[6:1],,8b,
,,{6}6bh[12:1]/4h[12:1],6h[12:1]/4bh[12:1],{48}7,8,3,2,7,8,{64}3,{192}2,7,,,,{48}8,3,{24}2,{4}8bw4[8:1],
{16},,,,2h[8:1],,,4/6-8[8:1],,,{8}6/4,5h[8:1],1-5[8:1],
,1/3,2,1-5b[8:1],,1b,{4}8h[8:1],
4/6,{16}7h[8:1],,,5/3-1[8:1],,,{8}3/5,4h[8:1],8-4[8:1],
,8/6,7,8-4b[8:1],,8b,{4}1h[8:1],
{8}3/5,4,4/6,5,7/5,6,6/4,5,
3/5,2,1/5,6,7/2,3,{16}4/8,7/3,6/2,5/1,
{8}4,5,2/6,3/7,{16}6,4,5,3,{32}E2/5>4>3>2<1<8<7<6>5[1:1],E1,E8,E7,E6,E5,E4,E3,
{1}E2f/D2/A1/B1,
Cf,
{48}C,B6,{4},,,{16},,,{48},{1}D4,
{48}C,B7,{4},,,{16},,,{48},{1}B5,
{48}C,B8,{4},,,{16},,,{48},{1}E2,
{48}C,B1,{4},,,{16},,,{48},{1}1V36[1:2],
{48}Ch[48:0],B2h[48:0],{4},,,{16},,,{48},{1}6V48[1:2],
{48}Ch[48:0],B3h[48:0],{4},,,{16},,,{48},{1}8V24[1:2],
{48}Ch[1:3],B4h[48:0],{1},{4},,,{16},,,{48},B5h[48:0],
A5h[48:0],{4},{16},,,{48},{8}5b,5bh[4:1],{32},,,,,,,,D1f/D5f,
D8`D4,D7`D3,D2,{8}D6,{4}3h[8:1],2h[8:1],{8}1,{16}1,2,
{8}3h[8:1],7,7h[8:1],{16}4,3,{8}2h[8:1],5,5h[8:1],{16}2,5,
{8}3h[8:1],6,4h[8:1],7,3h[8:1],6,2,{24}2,3,4,
{8}5/8,8,4,{24}4z8b[8:3],3,2,{2}1/5,
{8}2,2/7,2/B6,2,5,5/8,5/B2,5,
{16}1,5,2,6,3,7,4,8,{32}5,6,7,8,1,2,3,4,5bz1>5[1.5##0.897],6,7,8,1s5<1b[1.35##0.897],2,3,4,
{1}1bh[2:1]/5bh[2:1],
5b/1b,
{32}8bV25[4:1],7,6,5,,,,,{8}8,6,7h[8:1],{16}4,4,{8}8-4[8:1],3,
8>3[8:1],5,8,4,{32}8b,7,6,5,{8}3h[16:1],{32}8b,1,2,3,{8}5h[16:1],
{32}8b-4-6[4:1],7,6,5,{8}3,8,2,3h[8:1],{16}7,7,{8}1-5[8:1],6,
1-3[8:1],{16}8,8,{8}1-4[8:1],8,1b/7-3[8:1],6,7b,{16}2,1,
{4}8bV24[4:1],{16}4,5,6,7,{4}8b-6[8:1],{8}4/8-2[8:1],2,
{4}8b/5-8[8:1],{8}5b/3-5[8:1],2,{4}3b/1-3[8:1],{8}1b,{16}4,4,
1bh[8:1],,,8bh[8:1]/2h[8:1],,,7,7,3bh[8:1],,,5bh[8:1]/1h[8:1],,,{8}6/2,
{16}3,4,{8}3>7b[4:1],2/5,3b,,6b,5b<8[8:1],4,
{32}5/1bV74[4:1],2,3,4,,,,,{8}1,3,2h[8:1],{16}5,5,{8}1-5[8:1],6,
1<6[8:1],4,1,5,{32}1b,2,3,4,{8}6h[16:1],{32}1b,8,7,6,{8}4h[16:1],
{32}1b-5-3[4:1],2,3,4,,,,,{8}1,7,6h[8:1],{16}2,2,{8}8,2b/1<6[8:1],
8,{32}1b/2b-6[8:1],3,4,5,,,,,{8}2b/8-2[8:1],7,8b<6[8:1],4,{16}8b/4,3,
{4}2h[4:1],{16}1,1,1,1,{48}2,3,8,7,2,3,{16}7-5[8:1],3,{8}8,7/3,
{4}1h[4:1],{16}8,8,8,8,{48}7,6,1,2,7,6,{16}2-8[8:1],5,{8}3,2/5,
{4}4h[4:1],{12}3h,3h,3h,{48}4,5,2,1,4,5,{16}1-5[8:1],5,{8}2,1/6,
7,8,{16}1,2,3,4,{32}1,2,3,4,5,6,7,8,5p4[2:3]/1p8[2:3],2,3,4,5,6,7,8,
{1}1b/5b,
{4},,,2,
{2}5/2h[4:1],8h[4:1]/5-1[8:1],
6h[4:1]/Cfh[16:0],{8}4h[8:3]/Cf,8,8,8<4[8:1],
8b,{24}4/8b-3[8:1],3,2,{8}1,8/4bx-1[8:1],{24}5,6,7,8/4b,,,{8}8,{24}8b,7,6,
{4}5b/1b>4V28[8:3],{16}5b/1b,6,7,8,7b,6,{8}5b<1[8:1],5b,{24}1/5b-2[8:1],2,3,
{8}4,5/1bx-4[8:1],{24}8,7,6,5/1b,,,{8}5,{24}5b,6,7,{4}8b/4b>1V35[8:3],
{16}8b/4b,7,6,5,6b,7b,{8}8b<5[8:1],8b,{24}4b/8bv5[8:1],3,2,{8}1,1b/8b-6[8:1],
{24}1,2,3,4b/8b,,,{8}4,{24}4b,3,2,{8}1b,1/4,{16}5,2,5,2,
{32}6,3,6,3,{16}6<1[8:1],3,{8}2b/5,{24}2b/6b-2[8:1],3,4,{8}5,8b/6b,{24}8,7,6,5b/1b>4[8:1],,,{8}5,
{24}1b/5b,6,7,{8}8b,8b,{16}4h,5,2h,5,1h,6,3h,7,
2bh,6b,4bh,7b,{8}8b/4,{24}3b/8b-4[8:1],7/2,6/1,{8}5,8b,{16}5b,6,7,8,
{24}5b,4,3,2,1,8,{16}6b,5,4,3,{32}8b,4,8b,5,8b,6,8b,7,8bw4b[8:1],7/1b,6/2b,5/3b,4b,3/5b,2/6b,1/7b,
{1}8b<8<8<4>3>1<8<7<6>5>4[0.3##12.6],
,2h[1:1],
,4h[1:1],
,8h[1:1],
,{48}Ch[4:11]/B2h[16:0]/B1h[16:3],
,,,,,,,,,,B8h[48:0],,,{24}E1h[48:0],{96},,,,,,,,,,,,,,,,,,,{32}B3h[32:0],,B2h[32:5],,,,,,,{16}B1h[16:3],{32},,,,,E1h[32:0],
,B8h[32:5],,,,,,,{16}B1h[16:3],{32},,,,,B2h[32:0],,B3h[32:0],,E3h[32:3],,,,,,B4h[96:7],{96},,,,,,,,,,,,,,,,{24}B3h[24:1],
,,{12}B4h[48:1],B5h[48:7],
E
