&title=D/N/A
&artist=Azari
&first=0
&lv_5=13+
&des=SetDesigner
&clock_count=4
&inote_5=(150){1},,
{1}8>5[2:1]*-5[2:1],6-8-4-2[2:1],3v5b[2:1]*-8-5b[2:1],Ch[4:3],
{4}3bx/5bxh[4:1],3h[4:1],{16}1,,,2/8,,,{8}3/7,
{4}6b/4bh[4:1],7h[4:1],{16}1,,,8/2,,,{8}7/3,
{4}4b/6bh[4:1],3h[4:1],{16}8,,,1/7,,,{8}2/6,
{4}7-3[8:1],{8}2-6[8:1],,8-4b[8:1],,,,
{4}3h[1:2],E5,,E6,,E7,,E8,8h[1:2],E5,,E4,,E3,,E2,
{8}1-5>4v2[2:1],,5,,6,,7,,8-4<5v7[2:1],,4,,3,,2,,
{4}1>4[4:1],4<7[4:1],7>2[4:1],2x>5[4:1],5<8[4:1],8w4[4:1],,,
{16}3/5,,2,8,1h[8:1],,7h[8:1],,8b,,6bx,5b,,3bx,4b,,
{16}2/5,,3,5,4,,6,,5h[8:1],,,4h[8:1]/6h[8:1],,,3/7,,
{16}2/8,,7,1,8h[8:1],,2h[8:1],,1b,,3bx,4b,,6bx,5b,,
{16}7/4,,6,4,5,,3,,4h[8:1],,,,3h[8:1]/5h[8:1],,,,
{8}2-4-1-5[2:1]/6,,D6,,E7,,D8,,8-6-1-5[2:1]/4,,D4,,E3,,D2,,
{16}1,,2/4,,3/5,,4/6,,5/7,,8,,1/8,,2,,
{16}3/4,,5,,4/6,,7,,1/8-4b[8:1],,2,,3h[4:8]/8b-2-6-4-8<7v5[4:11]/Cf,,,,{1},,
{8}4,,3,,2,,1,,
{8}2h[8:1]/4h[8:1],,3h[8:1]/5h[8:1],,4h[8:1]/6h[8:1],,5h[8:1]/7h[8:1],,
{16}1/8,,,2/4,,,5b-2b[8:1]/7b-4b[8:1],,,,,,{4},
{16}3bx,4,4,4,3b,4,4,4,3b,4,4,5bx,4,4,3b,4,
{16}2b,2h[16:3],,,8b,8h[16:3],,,6b,6h[8:1],,7,5,,4/6,,
{16}6bx,5,5,5,6b,5,5,5,6b,5,5,4bx,5,5,6b,5,
{16}7b,7h[16:3],,,1b,1h[16:3],,,3b,3h[8:1],,2,4-8[8:1],,5/3,,
{16}2-6[8:1]/4,,,,2/7v4[8:1],,,,2/7,,,3x,3,,4/6,,
{16}7,,2,8,1-5[8:1],,2,,1/7V53[8:1],,,,3/7,,2,,
{16}2-6[8:1],,,,2/8<5[8:1],,,,1/8,,,,3-6[8:1],,2/4,,
{16}3,,8x,,8-4[8:1],,4,,8,,,,2x/4xp3>5[4:3],,5,,{2}4/6h[2:1],,
{16}3/4,,2,8,1-5[8:1],,7,,1,,,,7x/5xq6<4b[4:3],,4,,{2}5/3h[2:1],,
{16}6/5,,7,1,8,,8/2,,2-6[8:1],,1,,2,,7,,
{16}5/6,,7,7,1-5[8:1],,8,,1,,6,6,4-2[8:1],,5,,
{16}4,,8,,1/7,,6/8,,5/7,,,,B5/B6fh[1:0]/B7/E7/E6,,,,
{16}4/3,,2,2,8-4b[8:1],,1,,8,,3,3,5-7b[8:1],,4,,
{16}5,,1,,8/2,,3/1,,4/2,,,,B4/B3fh[1:0]/B2/E3/E4,,,,
{1},
{8}E3,E7,E4,E6,C,,{4}1x-5[8:1],
{16}1/6,7,8,,4/8,,4/8,,4/8,3,2,,1/5,,1/5,,
{16}2h[8:1],,4h[8:1],,5h[8:1],,7,,8-4b[8:1],,,,8b,,,,
{4}2xh[16:1]/B5/E5/B6,7h[16:1]/B4/E5/B3,
{16}8xh[16:1]/B2/B1/E1,,,7h[16:1]/5h[16:1],,,6b/4b,,
{16}2h[8:1],,5,,{32}1x,2,3,,5x,6,7,,{16}1bx,,,3/7,,,4,,
{4}7xh[16:1]/B4/E5/B3,2h[16:1]/B5/E5/B6,
{16}1xh[16:1]/B7/B8/E1,,,2h[16:1]/4h[16:1],,,{24}3b,5,3,
{16}5xh[8:1],,{32}4,,4x,3,2h[16:3],,,,,,8x,7,{16}2bx/6bx,,,,7-4[8:1]/3,,6,,
{8}1-3-8-4[4:1]/7,,{16}1/6-2b[8:1],,5,,6,,,3,,,1,,
{16}2-6-4[8:1]/8,,3,3,7/2,,,,8v5[8:1],,,,3/8,,2,,
{16}1/6>3[8:1],,7,,2/6,,,,3/4-8[8:1],,2,,4/5,,6,,
{8}7,2/8,3,4/5,6,5/7,E7h[8:14],,
{4}5xp8>5[4:5]*p8>5[4:5],B6,B7,B6,B7,B6,B7,
{8}E3h[8:14],,
{4}4xq1<4b[4:5],B3,B2,B3,B2,B3,B2,
{16}2bx/5b,,3,4,2,5,3b,,5b,,4,6,8,7,1b,,
{16}6b,,3,5,2,4,1b,,8b,,5,7,2,8,1b,,
{16}4b,,3,5,1,6,5b,,7b,,2,8,4,5,3b,,
{16}7b,,3,8,2,6,5b,,6b,,8,7,2,4,1b,,
{16}6b,,5,5,7,7,2b,,8b,,1,1,4,4,3b,,
{16}5b,,1,1,6,6,8b,,7b,,4,4,6,6,2b,,
{16}5b,,1,1,8,8,3b,,7b,,5,5,6,6,2b,,
{16}8b,,8,,1b/7b,,1/7,,2/6,,3,5,4,,1/7,,
{16}1bx>5[8:1],,6,,1,,8,8,5v2[8:1],,7,,5,,8,,
{16}8b<4[8:1],,3,,8,,1,1,4v7[8:1],,2,,4,,1,,
{16}1bV35[8:1],,6,,1,,8,8,5v2[8:1],,7,,5,,8,,
{16}8bV64[8:1],,3,,8,,1,1,4v7[8:1],,2,,4,,1,,
{16}7x/8b>3[8:1],,6,,5/8,,6,6,4x-7[8:1],,5,,2/4,,1,,
{16}2x/1b<6[8:1],,3,,4/1,,3,3,5x-2[8:1],,4,,7/5,,8,,
{16}7x/8bV24[8:1],,6,,5/8,,6,6,4x-7[8:1],,5,,2/4,,1,,
{16}2x/1bV75[8:1],,3,,4/1,,2,2,5hx[8:1],,1b,,
{8}2b/6b,3b/7b,{4}B2hf[1:0]/B4hf[16:1]/B6hf[16:2]/B8hf[16:3]/C,
E
