&title=逆光
&artist=坂本真綾
&first=0.02
&des=LTCalter
&clock_count=4
&lv_5=13+
&inote_5=(169.00001)
{1},,
{8}E2f,,
(169)
{8}8bx/3bxh[8:2],,4-6[8:1],,2,1-5[8:1],,1bx^6[8:1],
,1bx-5[8:1],,1bxw5[8:1],,,,3x/7xh[8:3],
,8,8^3[8:1],,5-2[8:1],,6,7bx-4[8:1]*-5[8:1],,7,,3-5[8:1]/1-5[8:1],,13,{16},,6,,
7h[8:2]/5,,,,5,,6,,81,,2,4,3,,1bx-5-3[8:2],,
,,7,,7,,1-5-7[8:2],,,,3,,3,,2x^7[8:1],,
,,6,,5,,4h[8:1],,8,4,8,4,8,4,
A1/D2/A2/E2hf[8:2]/B1/B2/E3/E1,,,,
A6/D6/A5/B6/B5/E6hf[16:3],,,
A3/D4/A4/E4hf[16:3]/B3,,,
{12}E8hf[12:2]/A7/D8/A8,,B2/B3/E3hf[12:2],,E7h[12:2]/B6,,
(169.0001){384}4xw8[8:1],4?w8[384:47],4?w8[384:46],4?w8[384:45],4?w8[384:44],4?w8[384:43],4?w8[384:42],,,,,,,,,,,,,,,,,,,,,,,,,,,,,,,,,,,,,,,,,,,,,,,,,,,,,,,,,,,,,,,,,,,,,,,,,,,,,,,,,,,,,,,,,,,,,,,,,,,,,,,,,,,,,,,,,,,,,,,,,,,,,,,,,,,,,,,,,,,,,,,,,,,,,,,,,,,,,,,,,,,,,,,,,,,,,,,,,,,,,,,,,,
(169){8}2bx^8^6^3pp6[8:29]/6bx,,,,,,,,,,,,,,,E1,,,,,,,,7xpp2[8:6],
,,,,,,,,
4xp2[8:6],,,,,,,,8xp5[8:6],,,,,,,3xq6[8:6],,,,,,,,7xs3b[8:4],,,,,,,,,
2>1[8:7],,,,,,,1q3[8:6],,,,,,,,5qq7[8:6],,,,,,,,5qq6[8:6],,,,,,,,,
7^4^3[8:4],,,,4^1^8[8:4],,,,8s4[8:4]*z4[8:4],,,,,,,,
2h[8:4],,,,4,1v6[8:1]*-4[8:1]/7,,1b,,{16}3,5,2,,8/7h[8:2],,,,5,,8b/2b,,,,
4^1[8:1],,,,8^5[8:1]*p4[8:1],,,,8,,,,2,,3h[8:2]/4,,
,,6,,8^3[8:1],,5^2[8:1],,5p8[16:3],,,,,,,,
1q5[8:1],,,,6^3[8:1],,,,2h[8:2],,,,1,,8^5[8:1]/3,,
,,4,,4pp2[8:3],,,,5,,,,7x,,,,
8-4[8:1],,,,5-1b[8:1],,,,7h[8:2],,,,2,,2-5[8:1]/4,,
,,6,,7,,8qq2[8:3],,,,3,,3,,,,
5>1[16:3],,,,8,,7,,6>2[16:3],,,,7,,8,,
1w5[8:1],,,,,,,,7-2[8:1]/3-6[8:1],,,,,,,,
1^6[8:1],,1,,4-8[8:1]*-1[8:1],,,,4,,,,2,,53,,
6,,57,,8,1,8,,2^4[8:1]/6^4[8:1],,,,,,,,
8p4[8:1],,8,,3^6[8:1],,,,7h[8:2],,,,8,,17,,
2,,73,,6,,54,,3,5,4,6,1b,,1,,
24,,2,,26,,2,,28,,2,,53,,3,,
75,,7,,71,,7,,73,,7,,85,,8,,
13,,24,,53,,64,,85,,74,,6b/3bqq5b[8:3],,2b/5b,,
,,,,,,,,{48}D1,E1,Cf,E5,D5,,{16},,,,3,,
1bx^4[8:1]/4bx,,,,4x,5x,6x,7x,8^2^5[16:4],,,,5x,6x,7x,8x,
1V35-7[16:4],,,,7x,8x,1x,2x,3s7[16:3],,,,1,,1,,
2^5[8:1],,,,2/8^5[8:1]*-4[8:1],,,,8pp1[8:1],,,,6^3[8:1],,,,
6/8-5[8:1],,,,2h[8:2],,,,4x^1[8:1],5x,6x,7x,8x^2^5b[16:3],7x,6x,5x,
4bxw8[8:1],,,,,,,,5x^8[8:1],4x,3x,2x,1xV74b[16:3],2x,3x,4x,
5bxw1b[8:1],,,,,,,,3-5[16:2]/7-4[8:1],,,,37,,,,
82,,3,5,4,,8^3[8:1]/6,,,,5,,6,,7bh[8:2]/4z8[16:3],,
,,4,,7,,B7/E7/Cf/B3/E3,,,,,,8,1,8,1,
8bx^7^6^5[8:1],,,,5x,4x,3x,2x,1^7^4[16:4],,,,4x,3x,2x,1x,
8V64-2[16:4],,,,2x,1x,8x,7x,6z2[16:3],,,,8,,8,,
7^4[8:1],,,,7/1^4[8:1]*q5[8:1],,,,1qq8[8:1],,,,3^6[8:1],,,,
3/1p4[16:3],,,,7h[8:2],,,,5x^8[8:1],4x,3x,2x,1x^7^4b[16:3],2x,3x,4x,
5bxw1[8:1],,,,Cf,,,,4x^1[8:1],5x,6x,7x,8xV25b[16:3],7x,6x,5x,
4bxw8b[8:1],,,,Cf,,,,6-1[16:2]/3-8[8:1],,,,63,,,,
27,,3,5,1h[8:1],,6,4,8h[8:1],,2-6b[8:1],1,3,,Cf,,
,,75,,84,,31,,3,4,2,5,{32}1x,8x,7x,6x,5x,4x,3x,2x,
{16}1bx-5[8:1]/7,,7,,71,,7,,2-5[8:1]/8,,8,,82,,8,,
3-8[8:1],,7-4[8:1],,3,,7,,2-5[8:1],,5V38[8:2],,2,,6,,
7-5[8:1],,7,,8-4[8:1],,8,,1-5[8:1],,1,,2,,2h[8:1],,
4-7[8:1],,3-1[8:1],,4,,3,,{16}8,,8-5b[8:1],,,,4,,
2-5[8:1],,1,,8-3[8:1],,7,,6-1[8:1],,5,,4<2b[16:5],,,,
Cf,,,,,,,,81,,81,,2,7,3,6,
5-2[8:1],,5,,5x/7-4[8:1],,7,,7x/1-5[8:1],,1,,1x/6,,6,,
7-4[8:1],,3-6[8:1],,7,,3,,8-4[8:1],,4^1[8:1],,8b<4^3^2^1b[1:3],,5bqq7^6^5[8:27],,
