&title=Axion
&artist=Sakuzyo
&first=0
&des=えども~ん
&lv_5=13
&inote_5=(160){1},
{4},,,{24},,,3,4,5h[24:19],
{4}6>7[4:10],,,,3h[8:6],,,,
{4}4h[8:6],,,,6-2[8:3]/4-8[8:3],,,{24},,,6,5,4h[24:19],
{4}3<2[4:10],,,,6h[8:6],,,,
{4}7h[8:6],,,,1qq4[16:7]/8pp5[16:7],,,{24},,,3,4,5,
{8}6,5,6,7^4[8:1],,7,8,6,35,4,3,2^5[8:1],,2,1,3,75,6,7,8^5[8:1],,8,1,7,{4}3V15[16:7]/6V84[16:7],,,{24},,,6,5,4,
{16}3,,4,,3,,1-6[8:1],,,,1,,7,,5,,
{16}47,,5,,6,,8-3[8:1],,,,8,,2,,4,,
{16}3,4,3,4,2,5,3,4,
{16}2,5,3,7,4,8,5,1,
{16}6,5,4,3,12,8,7,6,
{24}15,2,3,8,7,6,2,3,4,7,6,5,
{4}4bpp1[3:1]/3b,,{32}2,3h[16:1],,,,,,,{4},
{16}6,5,7,5,6,,4,5,3,,75,,8,7,6,5,
{16}2,4,3,4,2,,5,4,6,,35,,1,2,3,4,
{16}6,5,7,5,8,,2,1,3,,46,,5,6,7,8,
{16}3,1,3,1,2,4,2,4,3-8[8:1],5,3,5,3,,,,
{16}3,4,3,2,3,,5,4,6,,47,,3,2,1,8,
{16}6,7,6,5,6,,4,5,3,,35,,6,7,8,1,
{16}3,2,3,4,3,,6,5,7,,46,,4,3,2,1,
{16}6,8,6,8,7,5,7,5,6-3[8:1],4-7[8:1],6,4,6,,,,
{16}8b^5[8:1]/2,,,,2,,,3,3^8[8:1],,4,,5^8[8:1]/3,,,,25,,,,12,,,3,4-7[8:1]*-1[8:1],,3,,4,,,,
{16}1^4[8:1]/8,,,,7,,,6,6-1[8:1],,4,,5-2[8:1],,,,75,,8,,8,,,7,7,,3,,{16}1p4[8:1],8q5[12:1],2,7,
{16}1,,,,6,,,2,2-6[8:1],,5,,4-8[8:1]/2,,,,34,,,,13,,,2,1-6[8:1]*-4[8:1],,2,,1,,,,
{16}54,,,,36,,2,7,1,8,1,8,2,1,3,8,
{16}5,6,4,7,4,5,3,6,3,4,2,5,3^8[8:1],,,,
{16}5b/3b,,,7,,,56,,75,,5-1[6:1]/4,,42,42,,3^6[6:1],,,,,7^2[6:1],,,,
{16}3,4,5,6qq1[2:1],7,8,1,2,
{16}3h[4:1],,,,,,,,2,3,4,5,1,8,7,6,{16}5b/2b,52,,8h[8:1]/7h[8:1],,,,,8b/2b,82,,4h[8:1]/6h[8:1],,,,,
{16}6,,78,,17,17,,2q6[6:1]/6,,,5,6,7-4[8:1],8,1,,3,,1,,12,12,,8^5[6:1]/3,,,
{16}5,4,3pp6[2:1],2,1,8,7b,,,,,,1,2,3,,1,,8,,7,,6<3[3:1],,,,,,3,4,5v8[8:1],,,,,,,,
{16}1b,,,,7,7h[16:3],,,5,5h[16:3],,,6,6h[16:3],,,
8,,,,2,2h[16:3],,,4,4h[16:3],,,3,3h[16:3],,,
8,,,,7,7h[16:3],,,6,6h[16:3],,,5,5h[16:3],,,4,4h[16:3],,,3,3h[16:3],,,
{16}2,1,2,1,{12}3,4,5,{4}3b,
{16}7-4[8:1],7h[16:3],,,5-1[8:1],5h[16:3],,,8^5[8:1],8h[16:3],,,1,,,,
{16}2-6[8:1],2h[16:3],,,4-7[8:1],4h[16:3],,,1-5[8:1],1h[16:3],,,8,,,,
{16}6v3[8:1],6h[16:3],,,2v7[8:1],2h[16:3],,,5<4[2:1],5h[16:3],,,4b,,,,
{4},1s5[8:1]*z5[8:1],,
{16}7b/3b,,,6,6^1[8:1]/5,,4,,3h[4:1],,,,{16}1-3[8:1],,28,,1-5[8:1]/7,,,5-3[8:1],1,,6,,,,7,,8-4[8:1],1,7,,1/8-6[8:1],,,2,8-3[8:1],,3,,8-5[8:1]/4-1[8:1],,,,4-7[8:1]/8,,,,1,2,3,4,8,1,2,3,84,15,26,37,{4}4b/8b,
{16}2,1,2,1,83,38,,,7,8,7,8,16,16,,,6,5,7,4,56,56,,,3,4,2,5,34,34,5,6,
{16}8,1,2,3,8,1,2,3,8,7,6,5,8,7,6,5,3,4,2,5,1,8,2,7,
{16}5,6,3,8,{24}2,1,2,1,2,1,
{16}3b,,,2,2^5[8:1]/8,,1,,7h[4:1],,,,5-7[8:1],,28,,5-1[8:1]/3,,,1V74[5:1],5,,3,,,,2,,1w5[8:1],8,2,,
{16}1b,,,,3b/7b,,,,1/7b,,,7/5b,,,2/4b,,,
{32}8/2b,1,,,,,3/5b,4,,,,,1/7b,8,,,,,2b/6b,,,,
{48}35,4b,,,35,4b,,,35,4b,,,
{4}2bV48[2:1]/6b,,,5,6/7V15[2:1],,4,3,2V84[2:1]/4,5,6,7,{16}1,8,1,8,1,8,1,8,{24}1,2,3,8,7,6,2-6[8:1],3,4,7,6,5s1[1:1],
{4}4z8[1:1]/2b,,,,,,,,{32}3,4h[32:15],,,,,,,{4},,,{32}6,5h[32:7],,,,,,,{4},{16}7,8,7,8,{12}6,5,4,
{4}6b,,,{16}3,4,3,4,{8}2h[8:3],,,3h[8:3],,,4,,6<3[8:4],,,5-3[8:1],,,,,1V35[8:3],,,5-7[8:1],,,8,,
{32}1bs5[3:1],82,73,64,{8}5,,,8b-4[8:1],,,,
{32}8bz4[3:1],17,26,35,{8}4,,,1b-5[8:1],,,,
{16}7,5,6,3,4,2,5,1,7,8,6,1,7,5,8,4,1,8,7,6,{24}25,1,8,7,6,5,84,7,6,5,4,3,
{32}8b,7b,6b,5b,4b,3b,2b,1b,
{1}6b/8b<1[1:10],
{8}3h[1:1],,,,,,,,,,,,,,,,,{16},4h[16:17],{8},,,,,,,,,,,,,,,,,,5h[16:19],,,,,,,,,,,,,,,,,,,6h[16:16],,,,,,,,,,,,,,,,,,,,,,,,
