&title=carnation
&artist=ああああ
&first=3.8
&des=dargle
&clock_count=4
&clock_count=4
&lv_5=14
&inote_5=(80)
{8}45,,3,1,2,5,5,4,46,,56,12,
{8}1h[4:1]/2,
{16},4,4,,,,
{64}6,7,8h[32:7],,,,,,,,,,,,,,
{8}7,6,78,5,34,1,2h[8:1]/7h[8:1],,56,21,
{16}78,71,72,73,74,
{32}2,1,3,8,4,7,
(160)
{8}
5h[8:6],6,7,3,7,8,1h[4:1],,2h[8:4],4,1,7,7,
{16},12,1h[8:1]/2h[8:1],,,,
{32}8,7,6h[32:6],,,,,,
{16}5,7,6,8h[4:1],7,,1,2,3,4,5,6,78,,12,,56,,34,,36,,,45,4/5,,36,27,1h[2:1]/8,,,7,7,,6,,5h[8:1],,8,7,5,6,8,7,5,,
{8}6,7,8,12,3,45,6,71,8,4,,16,2,3,15,15,14,13,12,18,17,16,15,1h[4:1]/4,,,
{32}8,7,6,5h[1:2],,,,,,,,,4h[32:55],,,,,,,,
{4},,,,,,,,,,,
{8}5,6,43,2,1,,56,7,8,,18,7,6,,17,,1,2,35,,46,,52,,16,,45,3,7,18,72,37,
{16}4,7,3,8,12,,,,
{8}37,,56,4,27,
{16}1,8,2,,
{8},27,37,36,53,45,3,1,,6,
{16}3,5,4h[4:1],,,,5h[4:1],,,,
{16}4,6,1,6,3,6,1,6,3,5,1,5,4,5,7,5,8,7,5,6,8,7,5,6,1,8,4,5,1,8,3,4,
3,5,3,6,3,5,3,7,3,5,3,1,2,4,3,8,1,4,3,7,8,4,3,2,3,4,3,5,3,6,3,7,3h[4:1],,,,
{4}7h[4:1],6h[4:1],5h[4:1],1h[4:1],,78,
{8}1,2,34,,36,,56,,12,,84,7,6,15,37,,
{16}3,5,2,6,17,,8,,27,,
{8},7,6,5,
{16}3,7,3,,
{8},5,6,7,3,4,3,56,,1/8h[4:3],
{16}2,3,4,,,,
{8}7,,7,,,18,18,3,15,84,75,
{16},6,65,,5,6,4,7,3,8,2,,18,,78,,,6,65,,5,6,5,7,5,8,5,,18,,78,,,65,65,,4,6,3,5,2,4,1,8,2,7,
{8}3,6,4,5,28,17,75,12,18,
{16},3,34,,3,4,2,5,1,6,8,,18,,12,,,34,34,,3,5,4,6,8,6,4,6,7,6,5h[4:1],,,6,6,,8,,7,,
{16}1,8,2,7,1,8,2,,
{8}3,2,4,3,5,4,6,3,5,4,5,3,4,4,5,
{16}3,4,4,5,4,4,3,4,4,5,4,4,3,4,4,5,4,4,3,4,4,5,4,4,3,4,4,5,4,4,4,4,4b,,,,,,,,8h[16:1],,,,
{4},,,,,,,,,5,,,,56,,,,4,,,,
{96}3,7,,,,,,,,,,,,,,,,,,,,,,,,,,,,,,,,,,,,,,,,,,,,,,,2,1,,,,,,,,,,,,,,,,,,,,,,,
{8},,1,2,3,4,5,3,7,1,8,7,6,5,43,2,18,7,
{96}3,6,,,,,,,,,,,,,,,,,,,,,,,4,5,,,,,,,,,,,,,,,,,,,,,,,1,3,,,,,,,,,,,,,,,,,,,,,,,8,6,,,,,,,,,,,,,,,,,,,,,,,
{8}18,2,34,5,15,
{16}1,5,2,6,3,7,
{12}4,5,5,4,5,5,4,6,6,4,5,5,3,5,5,3,5,5,3,5,5,4,7,7,4,6,6,5,6,6,5,7,7,5,6,6,4,5,5,6,5,5,4,5,5,6,5,,
4,3,3,5,3,3,5,2,2,5,1,1,5,8,8,7,8,8,6,8,8,5,8,8,8,7,6,54,3,2,18,7,6,54,3,2,18,
{24}1,7,1,,16,,1,5,1,,14,,13,,1,,
{24}1,8,2,7,3,6,4b,,,,,,
{4}3,2,5,1,
{12}8,7,6,5,,12,,38,,45,,,
{4},1,8,27,
{12},8,1,27,,,1,2,3,48,,,
{16}2,1,3,8,1,8,2,7,8,7,1,6,2,5,3,4,5,4,6,4,7,4,8,4,1,4,2,4,
{12}3,4,4,5,4,4,3,4,4,5,4,4,3,,,,,,
{8}1,2,5,8,18,
{16},56,56,,4,6,3,7,2,8,
{24}1,7,1,7,1,7,1,,,
{16},34,34,,5,3,6,2,7,1,
{24}8,2,8,2,8,2,8,,,
{16},78,78,,65,,34,,3,4,3,2,3,4,3,,
{8}4,3,4,5,6,7,8,18,
{16},15,1/5h[8:1],,1,5,2,6,3,7,
{24}4,8,4,8,4,8,4h[4:1],,,
{16},8,8,,4,8,3,7,2,6,
{24}1,5,1,5,1,5,1h[4:1],,,
{16},8,8,,7,,6,,
{16}5,6,7,6,5,6,8,6,5,6,1,6,5,6,2,6,5,6,3,6,5,6,4,6,5,6,2,6,3,6,4h[4:1],,,,5,,,,
{16}3,4,4,5,4,4,3,4,4,5,4,4,3,4,4,5,5,6,5,5,4,5,5,6,5,5,4,5,5,6,5,4,3,2,1,,,,,,
{48}3,4,5,6b-3[1:2],,,,,,,,,
{4},,,,,,,,,,,,,
{32}71,2,,,,,,,6,,,,,,,,
{4}28,3,45,6,7,8,7,,2,4,56,,3,,
{32}71,6,,,,,,,,,,,,,,,
{4}12,3,45,36,27,8,1,,
{6}3,5,8,1h[1:2],
