&title=Bad Piggies Theme
&artist=Ilmari Hakkola
&first=-1.294
&des=remdayo
&lv_5=13+
&des_5=remdayo
&inote_5=
(156){4},,,,4h[8:1]/5h[8:1],
{16}6,3,7,2,{8}8/1-5[8:1],2,{4}1b/8b,
{8}3h[8:1],B6/E7/B7,3h[8:1],E7/B6/B7,2h[8:1],B6/E7/B7,2h[8:1],B6/E7/B7,
4h[8:1],B6/E7/B7,4h[8:1],B7/E7/B6,3h[8:1],B7/E7/B6,3h[8:1],B7/E7/B6,
{4}8h[4:1],{16}1h[16:3],,,7,{8}2,7/2,6/3,5/4,
{16}7,5,6,4,{8}5,3h[8:3],{2}6h[4:1],
{4}6/8,{16}1/3,,,7,{8}2,6/3,7/2,8/1,
{16}2,4,3,5,{8}4,5,3h[4:1],8,5h[4:1],8,
{4}1,{16}2,,,6,{8}3,4/2,6,7/5,
{16}7,8,7,8,{8}6,4h[8:3],{2}5h[4:1],
{4}1/8,{16}7/2,,,3,{8}6,5/7,3,2/4,
{16}2,1,2,1,{8}3,6h[4:1],1,4h[4:1],1,8,
3b,{16}6,5,{8}7,4,7/1,4,8/2,4,
{16}5h[16:3],,,4,{8}5,8/6,{4}7h[8:1]/5h[8:1],4h[8:1]/2h[8:1],
{16},,3,4,{8}2,5,1/8,2/7-4[0.5769##0.1923],3/6,5/4,
{4}7/2-6[8:1],2/8-4[8:1],{2}8/1,
{16},,6,5,{8}7,4,8<5[8:1],1>4[8:1],8,1,
{16}8x,7x,6x,5x,{8}4,3,{4}2h[4:1],1h[4:1],
{16},,3,4,{8}2,5,8-4[32:3],1-5[32:3],8,1,
{4}7h[16:3]/3h[8:1],2h[16:3]/6h[8:1],7h[16:3]/3h[8:1],2h[16:3]/6h[8:1],
{8}6,{16}7,5,{8}6,{16}2,4,3,4,2,4,3,4,2,4,
2,1,2,8,3,7,4,5,{32}4x,3x,2x,1x,8x,7x,6x,5x,4x,3x,2x,1x,8x,7x,6x,5x,
{4}4h[4:1],{16}5,,,6,{8}3,7/4,6/3,5/2,
{16}2,4,3,5,{8}4,6h[8:3],{16}3h[4:1],{32},,,,,,,,,,,,8x,7x,
{16}6xh[4:1],{32},,,,1x,2x,{16}3x,,,5,{8}4,7/8,6/1,5/2,
{16}7,5,6,4,{8}5,{16}3,3h[16:5],6,6h[16:3],,,,,,,{4}1-5[8:1]/8-4[8:1],
{16}8/1,,,7,{8}2,8/1,7/2,6/3,
{16}7,6,5x/4x,3,{8}2,5h[8:3],{2}4h[4:1],
{4}6h[16:3]/2h[16:3],7h[16:3]/3h[16:3],{8}8/1,6/3,7/2,5/4,
{16}6,7,8x/1x,2,{8}3,{16}8,8,1,8,{8}1,{4}8b-2[8:1],
{8}4/8-6[8:1],4h[16:1],4/8-2[8:1],4,5/8-6[8:1],5,5/8-2[8:1],5,
{16}3/8-6[8:1],,,3,{8}3/8-2[8:1],3,{4}4h[8:1]/8-6[8:1],8/4,
{16},,5,4,{8}7,6/3,7-4[32:3],2-5[32:3],7,2,
{4}1>3[8:1]/8<6[8:1],8-4[8:1]/1-5[8:1],8/1,8/1-7[8:1],
{8}5/1-3[8:1],5h[16:1],5/1-7[8:1],5,6/1-3[8:1],6,6/1-7[8:1],6,
4h[16:1]/1-3[8:1],4h[16:1],4/1-7[8:1],4,{4}5h[8:1]/1-3[8:1],1/5,
{16},,5,4,{8}7,6/3,7-4[32:3],2-5[32:3],7,2,
{16}6,3,6,3,7,2,7,2,6,3,7,2,{4}8bx/1bx,
{16}7b,4,5,4,7,4,5,4,7,8,6,1,5,2,4,3,
2b,5,4,5,2,5,4,5,2,1,3,8,4,7,5,6,
7b,8,7,8,6,5,6,5,2b,1,2,1,3,4,3,4,
6,4,5bx,4,7bx,4,5bx,4,8bx,4,5bx,4,7bx,4,5,4,
6b,5,6,5,2,1,2,1,3b,4,3,4,7,8,7,8,
1xh,2xh,3xh,4xh,1xh,2xh,3xh,4xh,8xh,7xh,6xh,5xh,8xh,7xh,6xh,5xh,
7x,7x,2x,2x,6x,6x,3x,3x,5x,5x,4x,4x,5x,5x,4x,4x,
7,5,6,4,5,3,4,2,5,4,{8}5bh[8:1],,,{4}B7f/E7f/B6f,
{16}B2f/B3f/E3f,,,6,{8}3,E7/B6/E3/B3,5/4,E7/B6/E3/B3/B7/B2,
{16}8,1,7,2,{8}6,3h[8:3],6,Cfh[8:1],{32},,,,,,8,7,
{4}6h[8:3],{16}3h[8:1],,,5,{8}4,6/3,B6/E7/B7/B2/E3/B3,6/3,
{16}2,8,1,7,{8}8>3[8:1],4,8<5[8:1],4,{16}8,{32},,,,1,2,
{4}3h[8:3],{16}6h[8:1],,,7,{8}2,7/8,6/1,5/2,
{16}7,5,6,4,{8}5,3,2h[8:3],B5/E6/B6,7,7b,
{32}8x,7x,{16}6x,{32},,,,1x,2x,{16}3x,,6/3,{8}2/7-4[32:3],8,7/2-5[32:3],1,
2/7-4[32:3],{16}8,8,{8}7,7/2,{4}6bx/3bx,5bx/4bx,
{16},,E6,E7,{8}E8,C,B8/E8/B7,B1/E2/B2,E6/B6/B5,B3/E4/B4,
{16}Cfh[1:1],,,1,{8}1-7[8:1],1,{4}1-3[8:1],1,
{16},,E2,E3,{8}E4,C,E6/B5/B6,B4/E4/B3,E8/B7/B8,B1/E2/B2,
{4}8-4[8:1]/1-3[8:1],1-5[8:1]/8-6[8:1],1/8,{16}6,3,5,4,
{8}5b,{16}1,8,{8}7/2,5/4,7/2,5/4,B7/E7/B6/B2/E3/B3,5/4,
{16}7,4,5,2,{8}7h[2:1],2,{4}3,4,
{16},,5,4,{8}3/6,5/4,6/1,5/4,8/3,5/4,
6/3,{16}6,5,{8}6,{16}3,4,{8}3,{16}7,5,{8}6,{16}2,4,
{8}3,{16}8,5,{8}6,{16}1,4,3,4,3,4,2,4,3,4,
1,8,1,8,5,6,5,6,{32}4x,3x,2x,1x,8x,7x,6x,5x,4x,3x,2x,1x,8x,7x,6x,5x,
{4}4h[8:3],{16}5h[8:1],,,4,{8}5,8/1,7/2,6/3,
{16}8x-6[8:1],8x,8x-2[8:1],8x,{8}8x-4[8:1],8x,{2}8x,
{4}6/8,{16}1/3,,,4,{8}5,8/1,7/2,6/3,
{16}1x-3[8:1],1x,1x-7[8:1],1x,{8}1x-5[8:1],1x,{4}1xw5[8:1],1x,
7bx/3bx,{16}6bx/2bx,,,5,{8}4,3,2,1,
{16}8h,1h,8h,1h,{8}8h,7-3[32:3],{2}6h,
{4}2bx/6bx,{16}3bx/7bx,,,4,{8}5,8/1,5/4,2/7,
{16}8x,1x,2xqq7[0.5769##0.5769],3x,{8}4x,5x,{4}6x>3[8:1],6x,
{16},,6,5,{8}7,4,7/8,7/8,2/1,1/2,
{16}5h[16:3],,,4,{8}5,5/4,{4}6h[8:1]/8h[8:1],1h[8:1]/3h[8:1],
{16},,3,4,{8}2,5,8-3[8:1],1-6[8:1],8-5[8:1],1,
{4}8-3[8:1],8w4[32:3],8bx,{16}7x,6x,5x,4x,
{8}3x,{16}6,5,{8}7,4,8<7-5[8:1],1>2-4[8:1],8,1,
{16}8x,7x,6x,5x,{8}4,3,{4}2h[4:1],1h[4:1],
{16},,3,4,{8}2,5,5/4,6/3,5/4,7,
{4}6bx/3bx,7bx/2bx,8b/4b,5b/1b,
{8}5/4,7/2,{16}3,6,2,7,{8}1/8-4[8:1],7,{4}8b/1b,
E
