&title=Singularity
&artist=ETIA.
&first=0
&des=
&des_5=uapy
&lv_5=14
&inote_5=(175){4},,,,{1}5<8z4[8:5]/4>1s5[8:5],
{8}3xh[4:1],B5,E6,4h[8:3],B6,E7,{4},{8}6h[4:1],
B4,E4,5h[8:3],B3,E3,{4},{8}1>4[8:1],
{4},{8}5<8[8:1],{4},2v5[8:1],
{8},6pp1[2:1],{4},4,3,
2,{16}8/2,{8},{16}7,{8}2/7,2,6/2,2,
7/1,7/1,{16}7/2,{8},{16}3,{8}7,7,4/7,7/4,
{16}8,1,8,1,8,1,8,1,8,1,8,1,8,1,8,1,
{1}8bv3-1-6-4[16:9],
{16}3,4,3,5,3,6,3,5,3,6,3,7,1,8,2,6,
4h[16:3],{8},{16}8b,{8},{16}3,3,8,1,6,5,8,1,4,3,
6,5,6,4,6,3,6,4,6,3,6,2,8,1,6,3,
7h[16:3],{8},{16}5b,{8},4p8[8:1],8v3[8:1],4,{4},{16}6,
5,6,4,6,3,6,4,6,3,6,2,8,1,7,3,
5h[16:3],{8},{16}1b,{8},{16}6,6,1,8,3,4,1,8,5,6,
3,4,3,5,3,6,3,5,3,6,3,7,1,8,3,6,
2h[16:3],{8},{16}4b,{8},{16}6,6,1,2,3,4,7,6,5,4,
{4}8xqq5[8:3],1,2,{8}3,3v8[8:1],
,3/4pp7[8:3],,4,1,1,2,2,
{4}1pp4[8:3],8,7,{8}6,6v1[8:1],
,6/5qq2[8:3],,5,8,8,7,7,
{4}6-1[8:1]/1-5[8:1],6/1,{8}8/4,7/3,2/6,5/1h[2:1],
{4},{8}5,5w1[8:1],{2},{16}1,
8,4,6,4,6,4,6,1,8,3,5,3,5,3,5,
2,4,3,4,2,4,3,4,1,4,3,4,{4}8bw4b[8:1],
{32}8b<8s4<5-1[4:13],Cf,{1},,,{4},,,{16},,,{8}3h[8:7],
{4},,,{8}5h[1:1],
,,,,,,,4h[1:1],
,,,,,,,Ch[8:9],
{1},{4}1,
1,2/8,{8}3/7,7/3V51[8:5],
{4},6,{8}7,7,8,8h[8:17],
{4},1V75<4[4:5],{2},,,{4}3h[4:3],
2,{8}1,1,8,8qq5[8:5],
,,,4-1[8:1],,4,{4},{8}8>4[8:5],
{4},,,{8}5pp8[8:5]*qq2[8:5],
{1},{8}1h[4:1],
B6,B5,2h[8:3],E7,E6,{4}C,
{8}7h[4:1],B3,B4,6h[8:3],E3,E4,{4}C,
{8}2<7[4:1],{4},{8}6>3[4:1],{4},1v4[4:1],
{8},5v8[4:1],{4},3,2,
1,{16}1/7,{8},{16}6,{8}1,1,1/B6/B5,1,
8,8,8,{16}3,1,{8}3,8,8/B2/B3,8,
{16}1,8,1,8,1,8,1,8,2,7,3,6,4,5,3,6,
{1}7v4<8[8:3]/2v5>1[8:3],
{4}1bh[8:1]/8bh[8:1],{16}2b/4b,{8},{16}3b/5b,,6b/4b,{8},{4}7b/5b,
{16}1,1,,8,{8}8,7b/5b,{16},6b/4b,{8}6b/4b,5b/3b,2b/4b,
1xh[8:1],8b,{16},7b/4b,,6b/3b,{8},5b/2b,1xqq2[2:1],5xqq6[8:3],
{4},,,{16}7,3,7,3,
{4}8h[4:1],{16}5b,{8},{16}6b/4b,,3b/5b,{8},{4}2b/4b,
{16}3x,3x,,6x,6b/5b,{8},{16}1b/8b,,2b/4b,{8}2b/4b,3b/5b,6b/4b,
{16}8xpp7[8:3],8x,{8}4xpp3[4:1],{2},{16}6x,2x,6x>3-7[8:5],2x<7-3b[16:9],
{1},{4}2b-5b[8:1],
{16}7b-3[8:1],{8},{16}6b-1b[8:1],,6b,{8},{4}4b,
{16}7,5,,3,{8}4,5b-1[8:1],{16},3b,{8}3b-8b[8:1],7b-4[8:1],3b,
7,1b,{16}1b-6b[8:1],{8},{16}3b-8[8:1],,3b,{8},5b-1b[8:1],6,
7p6[8:3],7,{2},{16}1,5,1,5,
{8}1h[8:1],{16}7,8,,6,{8}4,{16}2,5,,3,1,2,1,2,
8,1,,7,{8}7,{16}2,2,{8}6h[8:1],5,{16}4,5,4,5,
3,4,3,4,2,5,2,5,1,6,1,6,{32}2,3,4,5,6,7,8,1,
{2}2h[4:1]/6h[4:1],{4}3bv8b[8:1]/7bv4b[8:1],{32}3b/7b,Cf,{16},,,1,
5,2,6,3,7,1,5,2,6,3,7,1,1,5,5,
3h[16:3],{8},{16}7b,{8},{16}4,4,8,1,6,5,8,1,4,3,
8,4,7,3,6,2,8,4,7,3,6,2,8,8,4,4,
7h[16:3],{8},{16}3b,{8},{16}6,6,{8}1-5[8:1],5,1,6,
{16}7,3,8,4,1,5,7,3,8,4,1,5,8,8,4,4,
6h[16:3],{8},{16}2b,{8},{16}5,5,1,8,3,4,1,8,5,6,
2,6,1,5,8,4,2,6,1,5,8,4,1,1,5,5,
2h[16:3],{8},{16}6b,{8},{16}1,1,8,7,6,5,{32}1,2,3,4,5,6,7,8,
{4}1b>6[4:1],6,7q1[16:7],{8}4,4,
,2,,{16}2,8,{8}2>5[8:1],3,1/2,8,
{4}8<3[4:1],3,2qq5[2:1],{8}4,4,
,6,,{16}6,5,{8}6<1[8:1],7,6/5,4,
{4}3-8[8:1],3/4,{8}1/5,6/2,7/3,4b/8b-4[8:1],
{4},{8}2,2bh[2:1],,4bh[4:1],{4},{16}2b,
4,3,4,3,4,3,4,2b,5,4,5,4,5,{8}1b,
{16}2,3,4,5,8,7,6,5,{32}1,2,3,4,5,6,7,8,{384}1bq5b[8:1],5bq1[8:1],{16},,,{64},,,{96},{384}1bqq2<4b[2:3],
5bqq6>8[384:575],{192},,,,,{32}Cf/B3/B7,{1},{4},,,{16},,,{8}1h[2:3],
{4},{8}B3/B4,{4},B7/B6,
{8},C,{4},8,6/4,
3/5,{16}6/3,{8},{16}7,{8}3,3,3/8,3,
6/4,6/4,6/3,{16}2,6,{8}2,6,1/6,6,
{16}1,8,1,8,2,7,2,7,1,8,2,7,1,8,2,7,
A1,A2,A3,A4,E8,E7,E6,E5,E1,E2,E3,E4,B6,B5,B4,B3,
E
