&title=MA・TSU・RI
&artist=かなたん,アマギセーラ,ぁゅ by BEMANI Sound Team "藤森崇多"
&first=0
&des=Luner
&lv_5=14
&inote_5=(160)
{1}
,
,
{16}
45,45,,,
,,,,
,,,,
,,,,
26,,4-7[8:1],5,
3,,,,
1h[4:2],,8,,
7,,6,,
5h[4:2],,4,,
3,,2,,
1,6,3,8,
4,,5,,
62,,8^3[8:1],1,
7,,,,
5-2[8:1],6,7,,
,,,,
6,5,7,4,
8h[8:1],,,,
2,1,3,8,
4h[8:1],,,,
73,,5-2[8:1],4,
6,,7,,
8^5[8:1],,1,,
2,,3,,
4^1[8:1],,5,,
6,,7,,
8,,1,1,
1,8,2,,
37,,1^6[8:1],8,
2,,3,,
4-7[8:1],3,2,,
1,,,,
3-8[8:1],4,2,5,
,,,,
7-4[8:1],8,6,1,
7b,,,,
37,,4,5,
6,,26,,
5,4,3^8[8:1],,
,,5,,
6^3[8:1],,7,,
8,,
1^6[8:1],,2,,
3,,4,,5,,
87,,6,,
5-8[8:1],,1,,
2,3,4-1[8:1],,
8,,7,,
,,6-1[8:1],,
4,,3,,
2-5[8:1],,8,,
7b,,,,
62,,5,4,
3,,7,,
4,5,6^1[8:1],,
,,4,,
3^6[8:1],,2,,
1,,
8^3[8:1],,7,,
6,,5,,4,,
12,,3,,
4-1[8:1],,8,,
7,6,5-8[8:1],,
1,,2,,
,,3,1,
2,4,8,6,
5,7,1b,,
1b,,,,
37,,,,
4h[4:2],,5,,
6,,7,,
8-5[4:1],,,,
5^8[4:1],,,,
8^3[4:1],,,,
3-8[4:1],,,,
4,,,,
3,,,,
1,,87,,
6,,5,,
43,,2,,
1^4[8:1]*-6[8:1],,1,,
,,,,
5^8[8:1]*-2[8:1],,5,,
,,,,
73,,,,
8h[4:2],,1,,
2,,3,,
4-1[4:1],,,,
1^4[4:1],,,,
4^7[4:1],,,,
7-4[4:1],,8,,
8,,,,
7,,6,,5,,43,,
2,,1,,
87,,6,,
2,4,3,,
4,2,5,4,
7,,5,6,
1b,,,,
73,,8,,
2,1,2,3,
4,,6,5,
6,7,8,,
2,1,3,8,
4,5,3,6,
8-4[8:1],7,1-5[8:1],,
,,,,
6,,1,,
7,8,7,6,
5,,3,4,
3,2,1,,
78,,78,,
6,5,6,,
4-8[8:1],3,2,1,
,,,,
26,,1,,
7,8,7,5,
7,,3,4,
3,1,3,,
7,8,6,1,
5,4,6,3,
1-5[8:1],2,8-4[8:1],,
,,,,
3,,8,,
2,1,5,6,
8,7,3,4,
2,,2,,
18,,7,5,
6,,2,4,
3,,1b/8b,,
1b/8b,,,,
73,,1,1,
1,,28,,
1-5[8:1],,6-1[8:1],,1b,,
6,,
2,3,4,5,
1,2,3,4,
8,,1b,,
1b,,,,
37,,5,4,
6-1[8:1],,7,,
6/2-5[8:1],,3,,28,,
7,,
6,7,8,1,
5,6,7,8,
5-8[8:1]/1-4[8:1],,37,,
1b/5b,,,,
26,,8,8,
8,,71,,
8-4[8:1],,3-8[8:1],,8b,,
3,,
7,6,5,4,
8,7,6,5,
1,,8b,,
8b,,,,
62,,4,5,
3-8[8:1],,2,,
3/7-4[8:1],,6,,71,,
2,,
3,2,1,8,
4,3,2,1,
4-8[8:1]/8-4[8:1],,26,,
8b/4b,,,,
{12}
51,,2,
4,,4,
5,,5,
7,,7,
7^4[12:1],,1,
1^4[12:1],,8,
8-4[12:1],,,
8b,,,
18,,7,
5,,5,
4,3,4,
2,,2,
2^5[12:1],,8,
8^5[12:1],,1,
1-5[12:1],,,
1b,,,
18,,7,
5,,5,
4,,4,
2,,2,
2^7[12:1],,4,
4^7[12:1],,3,
3-7[12:1],,,
3b,,,
81,,2,
4,,4,
5,6,5,
7,,7,
7-3[12:1],,8,
8-4[12:1],,1,
1-5[12:1],,2,
2b-6[12:1],,4,
4-7[12:1],,,
4-1[12:1],,,
4-8[12:1],,,
4,,,
81,,2,
4,,7,
5-2[12:1]*-8[12:1],,,
5b,,,
{16}
3^6[8:1]/7h[8:2],,1,2,
3,,1,,
2h[8:1],,4h[8:1],,
6h[8:1],,8,,
6^1[8:1]/2h[8:2],,4,5,
6,,4h[4:1],,
2,1,8,7,
64,,53,,
62,,8,1,
7,,26,,
8-4[8:1],,,,
48,,,,
1^4[8:1]/5^8[8:1],,,,
1-6[8:1]/5-2[8:1],,,,
1-5[8:1]/5,,,,
1b/5,,,,
7^4[8:1]/3h[8:2],,1,8,
7,,1h[4:1],,
3,4,5,6,
7-4[8:1]/3,,8,,
1-6[8:1]/7,,2,,
3-8[8:1]/1,,4,,
5-2[8:1]/3,,6,,
57,,8,,
37,,5,4,
6,,15,,
3^6[8:1]/7^2[8:1],,,,
37,,,,
5-2[8:1]/1,,,,
5-8[8:1]/6,,,,
5b-1[8:1]/3,,,,
5/8,,,,
6^3[8:1]/2h[8:2],,8,7,
6,,8,,
7h[8:1],,5h[8:1],,
3h[8:1],,1,,
3^8[8:1]/7h[8:2],,5,4,
3,,5h[4:1],,
7,8,1,2,
35,,46,,
37,,1,8,
2,,37,,
1-5[8:1],,,,
15,,,,
8^5[8:1]/4^1[8:1],,,,
8-3[8:1]/4-7[8:1],,,,
8-4[8:1]/4,,,,
4/8b,,,,
2^5[8:1]/6h[8:2],,8,1,
2,,8h[4:1],,
6,5,4,3,
2-5[8:1]/6,,1,,
8-3[8:1]/2,,7,,
6-1[8:1]/8,,5,,
4-7[8:1]/6,,3,,
42,,1,,
62,,4,5,
3,,48,,
6^3[8:1]/2^7[8:1],,,,
62,,,,
4-7[8:1]/8,,,,
4-1[8:1]/3,,,,
4b-8[8:1]/6,,,,
4b/1,,,,
,,,,
,,,,
,,,,
,,,,
24,,3,,
3,,3,4,
25,,3,,
3,,3,4,
25,,3,,
24,,3,4,
2^5[8:1]/5^8[8:1],,,,
,,,,
75,,6,,
6,,6,5,
74,,6,,
6,,6,5,
74,,6,,
25,,3,,
48,,6,,
1-5[1:2]/5,,3,,
