&title=Amabie
&artist=Coyaan
&first=-0.79
&des=我这谱写出来不得直接吓死你啊
&lv_5=!!14.9!!
&inote_5=(168){2},{4},{8},{32},18,27,36,
{4}4b>5[2:7]/5,,6h[4:1],,
8h[4:3],,,,
2h[2:1],,{16},,1,,,2,,,
3h[4:3],,,,,,,,,,,,,,,,
17,,1,,1,,2,8,2,,5,,6,4,7,4,
8,,8,,17,,6,5,6,,7,,3,6,2,6,
1,8,2,7,1,8,2,7,3,6,4,5,2,7,1,8,
2h[8:1],,8,7,6,,7,6,5-2[8:1]*-1[8:1],,7h[64:1],,5b,,,,
8bV64[16:3],,,,{24}3V57[16:3]/8,,,,,,8b-4[8:1],,,,,,3,,,2h[4:1],,,
{16},,5,4,6h[8:1],,8h[8:1],,7,,12,,,38,,,
47,,3,4,2h[8:1],,1h[8:1],,3V51[4:1],,5,5,3,,7h[8:1],,
,,8,7,1h[8:1],,4h[8:1],,2,,38,,,27,,,
6b/1bV35[16:3],,,,{24}6V42[16:3]/1,,,,,,1-5[8:1],,,,,,6,,,8b,,,
{16},,4,5,3h[8:1],,1h[8:1],,2,,87,,,61,,,
52,,6,5,7h[8:1],,8h[8:1],,6V48[4:1],,4,4,6,,2h[8:1],,
,,1,2,8h[8:1],,5h[8:1],,7b,,,7b/4,,,7b/3,,
1b>4[8:1],,,,14,,7,7,5-1[8:1],,6,4,35,,2h[8:1],,
8-5[8:1],,3-8[8:1],4,8,,3,,7h[8:1],,,7h[8:1]/1,,,7/2,,
1-4[8:1],,,,14,,7,7,5<8[8:1],,6,4,35,,1h[8:1],,
2,,1,8,2q5[8:3]/7,,36,,27,,8b,,8b,,,,
8b<5[8:1],,,,85,,2,2,4-8[8:1],,3,5,64,,7h[8:1],,
1-4[8:1],,6-1[8:1],5,1,,6,,2h[8:1],,,2h[8:1]/1h[8:1],,,2/1,,
8-5[8:1],,,,85,,2,2,4>1[8:1],,3,5,64,,7h[4:1],,
,,8b-5[16:1],,,6b-3[16:1],,,8b-4[16:1],,,6b-2[16:1],,,8b,,
{16}8b>4[4:1],,,,5,6,7,8,1,,1-6[8:1]/5-1[8:1],,,,15,,
,,2,3,4,,3,4,5<8[8:1],,1,,1,,,,
1/2q8[4:1],,,,7,6,5,4,3,,1p4[32:5]/3V57[32:5],,,,13,,
,,3,2,1,,2,1,{32}38,4,,,,,38,4,,,,,38,4,,,
{16}8bV64[4:1]/5,,,,4,3,2,1,8,,8>3[8:1]/5p1[8:1],,,,85,,
,,8,7,6,,7,6,5-1[8:1],,8,,8,,,,
2,4,3,5,2-4[12:1],,1,8,2/7h[8:1],,,5h[8:1]/6h[8:1],,,78,,
1,8,1,7,1,8,1,6,{32}7/2,3,,,,,8/2,3,,,,,1/2,3,,,
{16}1b<5[4:1]/4,,,,4,3,2,1,8,,8-3[8:1]/4-8[8:1],,,,84,,
,,7,6,5,,6,5,4>1[8:1],,8,,8,,,,
8/7p1[4:1],,,,2,3,4,5,6,,8q5[32:5]/6V42[32:5],,,,86,,
,,6,7,8,,7,8,{32}61,5,,,,,61,5,,,,,61,5,,,
{24}1b,2,3,4,5,6,2,3,4,5,6,7,8,,,{16}6v1[8:1]/8<4[8:1],,,,68,,
{16},,2,3,4,,3,4,5-8[8:1],,1,,1,,,,
7,5,6,4,7-5[12:1],,8,1,7/2h[8:1],,,4h[8:1]/3h[8:1],,,21,,
,,1b-4[16:1],,,3b-6[16:1],,,1b-5[16:1],,,3b-7[16:1],,,1b,,
8<1[1:2],,,,,,,,2h[4:1],,,,,,,,
1h[4:1],,,,,,,,8,,,7,,,6,,
5h[4:1],,,,,,,,4h[4:1]/3h[64:1],,,2h[64:1],,,1h[64:1],,
3h[4:1],,,,8h[64:1],,,,2h[4:1]/6h[64:1],,,7h[64:1],,,8h[64:1],,
17,,1,,1,,2,8,2,,5,,6,4,7,4,
8,,8,,17,,6,5,6,,7,,3,6,2,6,
1,8,2,7,1,8,2,7,3,6,4,5,2,7,1,8,
2h[8:1],,8,7,6,,7,6,5p1[8:1]*pp6[32:5],,37,,5b,,,,
{24}8bV24[16:3],,,,,,58,6,7,,,,8b-3[8:1],7,6,{16}5-1[8:1]/2,1,8,,5,,
{16}4,,4,8,2-6[8:1],,6h[8:1],,2,,1h[8:1],,,8h[8:1]/4h[8:1],,,
{24}7bV53[16:3],,,,,,37,2,1,,,,8-5[8:1],1,2,{16}3<1[4:1]/6,7,8b,,3b,,
{16},,5,2,8-5[8:1],,4h[8:1],,8,,2h[8:1],,,3h[8:1]/7h[8:1],,,
{16}8b-4[8:1],,2,1,8/3>8[8:1],,2,,3/7-3[8:1],6,5<3[4:1],,7,,5b,,
{16},,4,5,3-8[8:1],,24,,8,,7h[8:1],,,1h[8:1]/6h[8:1],,,
{16}5b-8[8:1],,,,25,,4,,1-5[8:1]/3,,{16}8>6[4:1],7,16,,8,,
{16},,3,2,18,,7,,6h[8:1]/2h[8:1],,,7h[8:1]/3h[8:1],,,84,,
{24}4b/8b-4[8:1],37,26,15,,,{16}4/8b,,6,7,8-6[16:1],,,1-5[16:1],,,2-4[8:1],,
{16},,6,7,8-4[8:1],,4-8[8:1],,1h[8:1],,,2h[8:1],,,3,,\
{24}4b-8[8:1]/8b,37,26,15,,,4b/8,,,{16}1,2,3b-5[16:1],,,2b-6[16:1],,,1b-7[16:1],,
{16},,5,4,3pp8[4:1]/6qq1[4:1],,27,,,,,,,,,,
{16}7-4[8:1],,8,8,1-5[8:1]/7,,2,,6-2[8:1],7,8>7[4:1],,6,,8b,,
{16},,1,2,3-7[8:1],,7-3[8:1],,5h[8:1],,,5h[8:1],,,5,,
{24}2bqq6[2:1]/6bqq2[2:1],37,48,15,,,,,,,,,,,,,,,,,,1b-5[16:1],,,
{16},,7b-2[16:1],,,3b-6[16:1],,,5b-1[16:1],,,1b-5[16:1]*-5[16:1],,,2b,,
{32}4b,3,2,,,{16}8,8,1,7h[16:1],{32}8,1,2,5b,6,7,8,{16}2,2,1,1,{24}3,8,3,
{24}8,3,8,{16}2-7[8:1],2,6,,2,,5b,,{24}4,3,2,6,7,8,{16}2,1,
{16}38,,{24}2,4,2,{16}4,35,46,57,6/8-4[8:1],,1,2,38,,{24}1,5,1,
{24}5,1,5,{16}2,6,4-8[8:1],,8,,4,,7b,,7b,1,,1,
{32}2b/8b,3,4,5,6b/8b,,,,7,,,,8b/1b,2,3,4,5b/8b,,,,{16}7,7,{32}8b,1,2,3,4b,,,,
{16}6,5,6,5,{32}4b/7b,3,2,1,8b/7b,,,,{32}6b,7,8,1,2b/3b,,,,{16}4,4,4,4,
{16}2b,6,8,8,2b,6,4,4,5b-2[16:1],,,2b-7[16:1],,,7b-4[16:1],,
{16},,1b-6[16:1],,,7b-3[16:1],,,1b-5[16:1],,,7b-2[16:1],,,1bpp4[4:3],,
{8}8b,,7,,6,,5,5,,3,3-5[8:1],,6,{16}7h[16:3],,,6h[16:3],,,
{8}5,,4,,3,{16}8,,2,7,1,,
{8}6,5,5-7[8:1],,4,{16}3h[16:3],,,4h[16:3],,,
{8}5,,6,,7,,5,5,,3,3-1[8:1],,8,{16}7,,,6,,,
{1}5-8[1:1]/4q1[1:1],
{8},,,,,1h[8:1],7b,,,,,,,,,,
