&title=Earthquake Super Shock (feat. Nana Takahashi)
&artist=SOUND HOLIC feat. Nana Takahashi
&first=-0.08
&lv_5=13+
&des=ImagineWind
&inote_5=
(175){4},{1},,{4},,,2h[4:1],
{8}7,2h[4:1],,7,2,2,
{4}1h[4:1],{8}6,1h[4:1],,6,1>5[8:7],1,
7,7,{2},{4}8<4[8:7],
{8}1,1,{4},,,{16}2,
2,{8},7,{16}3,3,{8},6,{16}4,5,4,5,
3,3,{8},7,{16}2,2,{8},6,{16}1,8,1,8,
{8}1>5[8:5],1,8,8,7,7,{4}6,
{8}6<2[8:5],6,5,5,4,4,{4}3,
3h[4:1],{8}7,2h[4:1],,6,1,1,
{4}7h[4:1],{8}3,6h[4:1],,2,5,5,
3/6,3h[8:5],{4},,,{8}2/7,
7h[8:5],{4},,,{16}1h[4:1],
8,{8},8,{16}2h[4:1],7,{8},7,2,2,
{16}6h[4:1],3,{8},3,{16}5h[4:1],4,{8},4,5,5,
4qq1[8:5],4,{4},,,{8}8qq5[8:5],
8,{4},,,{16}4,
4,{8},3/5,{16}2,2,{8},7/1,{16}8,1,8,1,
7,7,{8},8/6,{16}5,5,{8},3/6,4-2[8:1],5-1[8:1],
4-8[8:1],5-7[8:1],4-2[8:1],5-1[8:1],4-8[8:1],5<4[8:7],4,5,
{1},{4}7b/1bq5[8:1],
{8}1,7-4[8:1],,7,2,1,
{4}2-5[8:1],{8}2,8p4[8:1],,8,,3,
{16}4b,5,4,5,3,6,3,6,2,7,2,7,1,8,1,8,
2,2,3,3,4,4,5,5,3,6,1,8,2,7,1,8,
{4}2b/7b<4[8:1],{8}7,1q5[8:1],,1,8,7,
{4}8p4[8:1],{8}8,2>5[8:1],,2,,7,
{16}2b,6,3,7,1,5,2,8,3,5,2,6,1,7,3,6,
1,1,3,3,5,5,7,7,{32}1,2,3,4,5,6,7,8,{4}1b,
{8}8-5[8:1],1,2,3-8[8:1],4,5,{4}6-1[8:1],
{8}4>1[8:1],{4},{8}5-7[8:1],{4},1b,
{8}1-4[8:1],8,7,6,{4}5h[4:1],{8}4,4>1[8:1],
,4,{4}6h[16:7],{16}3,{8},{16}2,{8},1b/8b,
1-4[8:1],8,7,6-1[8:1],5,4,{4}3-8[8:1],
{8}5<8[8:1],{4},{8}4-2[8:1],,8b,{4},{8}8-5[8:1],
1,2,3,{4}4h[4:1],{8}5,4-1[8:1]/5-8[8:1],
,5/4,,6V85[4:1]/3V14[4:1],{2}3/6,
{4}8/2-5[8:1],2/8-4[8:1],8/3-7[8:1],3/1w5[8:1],
{2}1,{8}8-4[8:1],8,2-6[8:1],2,
{4}7-4[8:1],7/1-5[8:1],1/6-2[8:1],6/8w4[8:1],
{2}8,{8}8-4[8:1],8,2-6[8:1],2,
{4}7<3[4:1],3>7[4:1],7<3[4:1],{8}3-1[8:1],1V75[4:1],
{2},{4}1>8[4:3],{8}7,7h[8:5],
{1},{16}2b/4b,
{8},{16}5b/7b,{8},4b/5b,2b/7b,6h[4:1],{4},{32}1b,
2,3,4,5,6,7,8,{8}1,5V73[4:1],{4},{8}1,2,
{4}4z8[4:1],4,{8}7-3[8:1],7,2V84[4:1],2,
5,6,7V15[4:1],7,4,3,2,2,
{4}1>8[8:3]/8<1[8:3],{2},{4}2>8[2:1],
2h[2:1],{2},{8}7,1/8,
2-6[8:1],2,8-4[8:1],8,3-7[8:1],3,5-1[8:1],5,
2h[8:3],{4},{8}8h[8:3],{4},{8}1w5[8:1],1,
{4},7h[8:5],3b,{8}2b,2b,
{16}4,5,4,5,3,6,3,6,2,7,2,7,1,8,1,8,
{8}2b/7b,3/6,4/5,3b/6b,2-5[8:1]/7-4[8:1],1/8,{4}7/2>1[8:3],
{8}2h[8:3],{2},{8}7-4[8:1],7,1>6[8:3],
1,{4},{8}8,{4}8,{8}3/6,2/7,
{16}1,8,1>5[8:3],8,1,8,{8}1h[8:3],{2},{8}3V15[4:1],
3,7V51[4:1],7,{4}4,{8}3,3b,
{4}2h[8:1]/7h[8:1],{16}1,8,2,7,1,8,3,6,1,8,3,6,
1,2,3,4,5,6,7,8,{32}1,2,3,4,5,6,7,8,{4}1b>1[2:1],
,,{8},3,2-6[8:1],2,
8-4[8:1],8,5-1[8:1],5,7,6,7-2[8:1],7,
{4},{8}8/3,2/7,{4}6/3h[4:1],{8}6,7,
4,4h[8:5],5,5h[8:3],{2},{8}1>4[8:1],
8,7,6,5<8[8:1],4,3,2,
1-4[8:1],8,7,6,5-8[8:1],4,3,2,
{16}1,8,1,8,1,8,1,8,2,7,2,7,2,7,2,7,
1,8,2,7,1,8,2,7,{32}1,2,3,4,5,6,7,8,{4}1b,
1>4[4:1],4<7[4:1],7>2[4:1],2>5[4:1],
{2}5-8[8:1],{8}6,1,3/4,2,
{4}8<5[4:1],5>2[4:1],2<7[4:1],7<4[4:1],
{2}4-1[8:1],{8}3,8,6/5,7,
{4}2>6[4:1],6<2[4:1],2>6[4:1],{8}6-8[8:1],8V24[4:1],
{2},{4}8b-5[8:1],{8}2b,2h[8:5],
6,6,7,7,8,8,1/8,1/8,
{16}7b/5b,{8},{16}4b/2b,{8},5b/4b,7b/2b,3h[4:1],{4},{32}8b,
7,6,5,4,3,2,1,8,7,6,5,4,3,2,1,{4}8/4,{8}5V71[4:1],5,
{2}3,{8}2q6[8:1],2,8p4[8:1],8,
3qq5[4:1],3,5,6,7pp5[4:1],7,5,4,
{4}3b<3[8:3],{2},{4}7qq3[2:1],
7h[2:1],{2},{8}2-6[8:1],1,
{4}2/7-4[8:1],7/1-5[8:1],1/8-3[8:1],8/4pp8[2:1],
{8}4/2,{4},{8}2h[8:3],{4},{8}7w3[8:1],7,
{4},5h[2:1],3b,{8}2b,2b,
{16}8,1,8,1,7,2,7,2,6,3,6,3,5>1[8:3],4,5,4,
{4}5h[8:3],{2},{4}1>4[8:1],
{32}1/8,7,6,5h[32:9],{4},{8}4qq8[8:3],,5,6,7,
7h[2:1],{4},{8}2-5[8:1],{4}2,{8}6,7h[8:1],
{32}1b,2,3,4,5,6,7,8,{8}1,5s1[4:1],{4},2b,
{32}8/1,2,{16}3,{8},{32}1/7,6,{16}5,{8},{32}2/7<1[2:1],3,{16}4,{8},2,2h[8:5],
{2},7h[2:1],
{8}1-5[8:1],{4},{8}6b,,4,6,2/7,
{16}1,8,1,8,1,8,{8}2b/7b<4[8:1],,7,{4}1-5[8:1],
1/6-3[8:1],6/2-5[8:1],2/8,{8}8/2,7h[8:13],
{32}1b,2,3,4,5,6,,8,1,2,3,4,5,6,,8,1,2,3,4,5,6,,8,1,2,3,4,5,6,,8,
1,2,3,4,5,6,,8,1,2,3,4,5,6,,8,{2}1<2[8:7]*>8[8:7],
{4},,,{8},8,
7-3[8:1],7,8-4[8:1],8,1-5[8:1],1,2-6[8:1],2,
{2}7h[2:1],{8}4,3,2,1-4[8:1],
,8,7,6,5s1[4:1]*z1[4:1],5,{4},{8},2,
{4}1v4[8:1],{8}7,8v5[8:1],,3,
{4}2pp4[8:1],{8}7-3[8:1],7,5-1[8:1],5,8<1[4:3],8,
{1}8h[4:3],
{8}2/4,1,5/7,8,2/7,3/6,{4}4b/5b,
{16}4,4,{8},3/5,{16}2,2,{8},7/1,{16}8,1,8,1,
7,7,{8},8/6,{16}5,5,{8},3/6,{16}4,5,4,5,
{4}3/6,{16}3b,7,2,6,4,8,3,5,2,6,3,7,
2,2,3,3,4,4,5,5,1,1,7,7,4,4,6,6,
5,5,{8},6/4,{16}7,7,{8},2/8,{16}1,8,1,8,
2,2,{8},1/3,{16}4,4,{8},6/3,{16}2,7,2,7,
{8}1/8,7/5,2/4,3/6,1/2,3/4,5/6,7/8,
1-5[8:1]/8-4[8:1],2/7,{4}1b/8b,
