&title=parvorbital
&artist=frums
&first=0
&des=1stCCB
&lv_5=14
&des_5=1stCCB
&inote_5=
(197){4},{16},,,,,,,,,,,,1h[16:3],
,,2h[16:3],,,{8}3h[16:3],{16},4h[16:3],,,{4}5xh[16:3],
{16}8h[16:3],,,7h[16:3],,,{8}6h[16:3],{16},5h[16:3],,,{4}4xh[16:3],
{16}7h[16:3],,,8h[16:3],,,{8}1x,2x,3xh[16:3],{16},4xh[16:3],,,6-3-6[8:5],
,,2-7-2[16:7],,,,,,,,,,,,,1h[16:15],
,,6,,,{8}4,{16},7,,,{4}C,
{16}8h[16:15],,,3,,,{8}5,{16},2,,,{4}C,
{16}4h[1:1],,,6,,,{8}1,E7,B8,{16},C,,,5h[2:1],
,,3,,,{8}8q2[4:1],,,,,7h[4:11]/3h[16:3],
,,3h[16:3],,,{4}3h[16:3],
{8},3h[16:3],,,3h[16:3],,,3h[16:3],
,,{4}3h[16:3],{8},3x-7[32:1],,,5,
5,1,6,6,2,{4}7/3,
{8}4,4,8,3,3,7,{16}A2,E3,B3,B4,
{8}6,6,2,7,7,3,{4}8xh[16:1]/4xh[16:1],
{16}7-4[8:1],,,2-5[8:1],,,{8}8x-5[8:1],,1x-4[8:1],,,5,
6,1,6,7,2,{4}3/7,
{8}2,3,6,3,4,7,{16}A2,E2,B1,B8,
{8}6,5,2,5,4,1,{4}4xh[16:1]/8xh[16:1],
{1}5x<5[8:5]*V71V35[8:5],
{8}6-8[8:1],5,6,3-1[8:1],4-8[8:1],3x,{4}4x,
{8}2-4[8:1],3,2,7-5[8:1],8,7x,{16}A8,B8,C,B4,
{8}6,7,8/1,2,3,4,{4}5xh[16:1]/6xh[16:1],
{16}6-4[8:1],,,2-8[8:1],,,{8}7x-4[8:1],,3x-8[8:1],,,5-8[8:1],
1,5,2-7[8:1],6-3[8:1],2x,{4}6x,
{8}4-1[8:1],8,4,7-2[8:1],3,7x,{16}E4,B4,B5,E6,
{8}8,7,6/4,3,2,1,{4}8xh[16:1]/7xh[16:1],
{1}8x>8[8:5]*V24V68[8:5],
{8}C,,,C,,,,,C,
,,C,{16},,,,,,A5/A4,B4/B5,
{8}C,,,C,,,,,{1}C/8x<8[8:5],
Ch[4:11],
{8},,,,,,,,,,,,,,E7/E6/B6f,
E3/E4/B3f,
{1},
{4},(133)8b<2[4:3],2,1,
8,7,1>7[4:3],{16}7,,,8,
,,{8}1,{4}2h[4:1],,5-8>1-4<5[4:3],
3,2,7,6,
3-7-3[4:3],{8}5,6,{16},1,,,{4}2,
2<7p4[1:1],2,2-5[8:1],2,
6-1[8:1],6,8q6p8[4:3],{16}5,,,4,
,3,,2,{4}2p4[8:1],{16},,,,5-1-5[4:3],,,3,
{4}3-7[8:1],3,7-3[8:1],7,
{16}4<6-2<8[4:3],,,7,7,,,8,,,{8}3,{16},4,,,5,
{48}D8,A7,D7,A6,D6,A5,D5,A4,D4,{8}2,{16}8,1,{4}8-3[8:1],{8}6h[16:1],6h[16:1],
{16}6-1[8:1],4,7,4,6,4,3,2,{8}8,{16}1,6,8,7,2,8,
3,6,4,7,5,{48}8x,,7x,,6x,,{16}5x/4x,{12}B3/E3,E2/B1,E8/B7,4/5,{48},,{16}3,6,
4,8,3,6,5,7,4,5,3,8,8,{32}1x,2x,3x,4x,{16}5x/7,,,{8}3h[16:1],
3h[16:1],4h[16:1]/2h[16:1],4h[16:1]/2h[16:1],{32}5xq2q7[4:1],6x,7x,8x,{8}1x,,,,4h[16:1],
6h[16:1],{16}5,6,4,7,3,8,{8}2/1,3/7,
5/4,{16}3,6,4,5,3,6,{8}5/4,{16}4,7,2,8,1,5,
{8}2/6,3/7,{12}4x/8x,8x/4x,8x/4x,{8}7xh[16:1]/3xh[16:1],7xh[16:1]/3xh[16:1],{16}6,8,7,3,
1,2,7,5,6,2,4,3,5xh[8:1]/2xh[8:1],,,6,6,6,1,1,
{8}1/7h[8:1],{16}2,8,{8}4,{16}7,1,5,5,5/3,3/5,4p2[4:1],4,4/6,4/6,
,,,,6,7,8/1,2,3,4/5,6,7,1/8,1/8,2,7,
3,6,4,{32}5,6,7w3[0.4511##2.2556],8,1,2,3,4,5,6,{2}7,
{16},,,,,,,,,,,,,,,,(165)4h[16:3],
,,3h[16:3],,,{8}2h[8:11],{16},,1,8,7,6,,5xh[16:1],
,,{8}4xh[16:1],{16},3xh[16:1],,,1xh[16:1],,,8h[16:9],,,{8}6h[16:1],
{16},5h[16:1],,,{4}4-6-8[16:7],{16}6/4,,,8-4-2[16:9],,,,,,,,,,,,,7h[16:3],
,,6h[16:3],,,{8}5h[8:11],
{16},,8,1,2,3,,4xh[16:1],,,{8}6xh[16:1],{16},7xh[16:1],,,8xh[16:1],
,,1h[16:9],,,{8}3h[16:1],{16},4h[16:1],,,{4}5V71[16:7],
{16}5/3,,,1-4-6[16:9],,,{8}3,{16},,,,,,,,3h[16:3],
,,4h[16:3],{80},,,,,,,,,,7x,,,8x,,,1x,,,2x,,,{40}3x,{80},{16}4/5,{32},6,,,{16}7,{32}1x,2x,{8}3xh[16:3],
{16},5h[16:3],,,7h[16:3],,,1h[16:3],,2,3,4,{12}5/8x-4<7[4:5],8x,8x,
{8}8x,1xh[16:1],{16}2xh[16:1],,,3xh[16:1],{48},,,,,,,,,,{24}2xh[12:1],,,,{8}3xh[16:1],
2xh[16:1],1xh[16:1],8xh[16:1],7xh[16:1],{16}5x/6x,4,3,2x/8x,7,6,5x/4x,3,
2,1x/7x,6,5,{8}4x,{16}1x/8x,2,3,4x/6x,7,8,1x/2x,3,4,5x/7x,
8,1,{8}2x,{16}4b,3,2,1bx,8,7,6bx,5,4,3bx,2,1,
8bx,7,6,5bx,4,3,2bx,1,8,7,6,5bx,4,3,2,1,
{1}8bw4[4:5],
{4},,,5xw1[4:5],
{1},{4},,{16}7x<7[4:5]*>7[4:5],
{80}A1,,,B1,,,C,,,{40}B5,{80},A5,{1},{4},,{64},{320},,,{16}4x-8[0.3636##2.1818],
,,Ch[16:47],{1},{4},,{1},
{8},,,(101)1h[8:1],{16},B6,{8}B3,{16}8h[8:1],C,{32}A1,A2,A3,A4,
A8,A7,A6,A5,{8}1h[8:1],{32}8,,,7,,,{16}6,{8}3/8h[8:1],{16}2,2,{8}1,{16}8/1h[8:1],7,
,7,{8}8/2,{16}8h[8:1],{32}2,3,{16}4,{32}7,6,{8}5/4,5/1h[8:1],{32}6,2,6,2,7,1,7,1,
{8}8h[8:1],2b,3b/6b,{64}1h[8:1]/A8,,,A7,,,{32}A6,,A2,A3,A4,{8}7h[16:1],{16}4/8h[8:1],4,2,2,
{8}7,7/1h[8:1],{32}8,1,8,1,7,2,7,2,{8}8h[8:1],{32}2,,,3/6,,,{16}5/4,{8}8/1h[8:1],
{16}8,2,6/3,7,1/8h[8:1],2,3,4,6/3,7/2,{24}8x/1h[8:1],7x,6x,5x,4x,3x,8/2,,,{8}3/8h[8:1],
{32}A4,A3,A2,A1,A5,A6,A7,A8,{8}1h[8:1],5b,8b/4b,{64}8h[8:1]/A1,,,A2,,,{32}A3,,A7,A6,A5,
{8}2h[16:1],1h[8:1]/4h[16:1],{48}8,7,6,2,3,4,{64}8x,7x,6x,5x,4x,3x,2x,1x,{8}8h[8:1],{16}2,3,4/7,6,{8}1h[8:1]/5h[16:1],
3h[8:1],6h[8:1],8h[8:1],{16}3,2,{8}1/6,1h[8:1]/8h[16:1],{48}8x,7x,6x,2x,3x,4x,{8}8,
2/8h[8:1],3h[8:1],{64},,,,7x,6x,5x,4x,{8}1h[8:1],{16}3,5,{8}1/7,8h[8:1]/3h[16:1],5h[8:1],
4h[8:1],1h[8:1],{32}4,5,6,7,{8}8/1,{4}4/5V71V35[8:7],4h[16:3],
2h[8:1],{8}8,5<1V35[4:3],,4h[8:1],,2,
8,5V71>5[4:3],{4}2h[8:1],{8}C,C,8,5<5[0.5941##1.7822],
,3h[8:1],,2,8,5h[8:1],,C,
{1}C,
(229){16}1x,2,3,4x,5,6,1x,2,3,4x,5,6,1x,2,3,4,
{1}5xs1[16:1],
E
