&title=请务必再度光临夜雀食堂
&artist=Hanari,籽糖,残实
&first=-0.15
&des=MikanStar
&lv_5=13+
&des_5=MikanStar
&inote_5=
(100){4},,,{16},,{32},8/4,7/3-8[16:1],6/2,
{8}5b/1b,{16}5-1[16:1],3,,,{8}5,{16}4h[16:1],5,4-8[16:1],6,{8}3,4/5,
{16}7,6,5-1[16:1],4,,,{8}5,4h[4:1],{32}7v2[16:1],6,{16}5,,,{8}7,
{16}6b,4,4-2[16:1],5,,,{8}4-8[16:1],{16}5,3,{8}4>1[16:1],,4,
{16}8,7,,6/1>3[8:1],,,8,1/8v3[16:1],7,6-4[16:1],,8,,6,{32},,2p6[16:1]/6p2[16:1],7/3,
{16}8b/4b,,,2/6,,,{8}2/6,{16}6/2,7/3,4-2[16:1]/8-6[16:1],5/1,,,{8}8/4,
{16}1/5b,6/2,3-1[16:1]/7-5[16:1],8/4,,,{8}3/7,4h[4:1]/8h[16:1],{32}1-6[16:1],2,{16}3,,,{8}1,
{16}5b/8h[8:3],,,4,,,{8}3,3h[8:1],{16}7h[16:1],3,6,4,,4/5h[4:1],
4,3,2,1s5[16:1],5,6,7,1b/8b,,8h[16:1],1h[16:1],7h[16:1],2h[16:1],6h[16:1],3h[16:1],7h[16:1],
{8}2b,{16}7,1-5[16:1],,8h[8:1],,1,,8,7,6-3[16:1],1,2-5[16:1],3,6b-1[16:1],
,2,,6-2[16:1],,4h[8:1],,6b,,,1,8/1,,,,,{8}7b,
{16}2,8-4[16:1],,1h[8:1],,8,,1,2,3,4-1[16:1],8,7,6,
{8}4b,{16}5,6-1[16:1],,5,,6,5,4,3,2h[16:1],1h[16:1],8h[16:1],7h[16:1],6h[16:1],
{8}5b,{16}4,6-1[16:1],,4h[8:1],,6,,4,3,2-8[16:1],8,7-3[16:1],6,2b-5[16:1],
,7-5[16:1],,2b-7[16:1],,7,,2b,,,5,5/4,,,,,{8}4b,
{16}5,3-8[16:1],,5h[8:1],,3,,5,6,7-4[16:1],1,8,2,7/2h[16:3],
,,8,7,,7/3,8/4,1/5h[16:5],{48},,,,,,,,,,,,{24}1,8,7,6/2,5/1,4/8,
{16}7b/3h[16:3],,,7h[16:3],,,{8}4h[4:3],{16}8,,,8,,,{8}8,
{16},,8,4,8,1,2,3,4h[16:3],,,3h[16:3],,,{8}5h[8:1],
{2}4h[8:9],{16}5,,,5,,,{8}5,
{16},,5h[16:1],4h[16:1],6h[16:1],3h[16:1],7h[16:1],2h[16:1],{2}8b,
{16}4/5h[16:3],,,2,,,{8}5/1h[8:1],{16}7h[16:3],,,3,,,{8}6h[4:1]/4h[2:1],
{16},,,,,,6,4,7,5,6,4,5,3,{8}6,
{16}5/4h[16:3],,,7,,,{8}4/8h[8:1],{16}2h[16:3],,,6,,,{8}5/3h[4:1],
{16},,4,2,5,3,6,4b,,,,,,,,,{2}5h[16:3]/4h[16:3],
{8}6h[16:3]/3h[16:3],,,7h[16:3]/2h[16:3],
{16},,,,8,1,7,2,6h[16:3]/3h[16:3],,,,,5/4,,,{2}5h[16:3]/4h[16:3],
{8}6h[16:3]/3h[16:3],,,7h[16:3]/2h[16:3],
{16},,,,,,,,,,,,,,,,1b,
7,8,6,5,6,8,7,2,1,2,4,3,4,2,1,
2,8,1,8,2,7,2,7,3,6,3,5,4,5,2,7,
4b,6,5,6,4,5,2,7,4,5,3,5,4,6,2,7,
3,5,4,5,3,4,3,5,{24}4,4,4,4,4,4,{4}4b,
{8}5h[8:1]/3-8[16:1],2,{16}3,7h[8:1],,1-4[16:1],{8}7,{16}6h[4:1],1,,,{8}5h[16:5],
{16}6,7,8,1-5[16:1],,8/4h[8:1],,1<6[16:1],,2,2,1b,,,,,{8}4h[8:1]/6b-1[16:1],
7,{16}6,2h[8:1],,8-5[16:1],{8}2,{16}3h[4:1],8,,,{8}4h[16:5],
{16},,,3,,3,2,1,8,7,6,5,4h[16:1],3h[16:1],2h[16:1],1h[16:1],
{8}8b-3[16:1],7h[8:1],{16}8,6h[8:1],,7>2[16:1],{8}6,{16}6,7,,,{8}5h[16:5],
{16}6,7,8,1-5[16:1],,8/4h[8:1],,1<6[16:1],,2,2,1b,,,,,{8}8/1b-6[16:1],
2h[8:1],{16}1,3h[8:1],,2<7[16:1],{8}3,{16}3,2,,,{8}4h[8:7],
,,,1h[8:3],{24},,,,,,,,,8/4,7/3,6/2,
{8}1h[8:1],{16}5-2[16:1],6,{8}7h[8:1],5,{16}8,7,6,5h[16:3],,,{8}4h[16:5],
{16}5,6,7,8-4[16:1],,3/7h[8:1],,8>3[16:1],,7,7,8b,,,4/8,7/3,
{8}2/6h[8:1],{16}2-7[16:1],3,{8}4h[8:1],2,{16}4,5,6,7h[16:3],,,{8}6h[8:1],
{16}5h[16:1],4h[16:1],3h[16:1],2h[16:1],1,8,7,6,5h[16:1],4h[16:1],3h[16:1],2h[16:1],,,,,{4}4h[16:3]/5-1[16:1],
{8}4-2[16:1]/5-7[16:1],3,{16}5b/4b,,,6/3h[16:3],,,{8}5h[16:5],
{16}4,3,2,1-5[16:1],,6/2h[8:1],,1<6[16:1],,2,2,1b,,,1/5,2/6,
{8}7/3h[8:1],{16}7-2[16:1],6,{8}5h[8:1],7,{4}4h[4:1],5h[4:1],
{16}4h[16:1],3h[16:1],2h[16:1],1h[16:1],8,7,6,5,4,5h[16:1],4h[16:1],6h[16:1],3h[16:1],7h[16:1],2h[16:1],6h[16:1],
3b,2,1,8-3[16:1],7,6,5h[16:1],8,,5,6,7-4[16:1],8,1,2,7/3h[8:1],
,,,2h[8:1]/6h[4:1],,,,2b,,,2,6/2,,,,,6b,
7,8,1-6[16:1],2,3,4h[16:1],1,,4,3,2,1-4[16:1],8,7,6,
{8}5/1b,{16}5,5/4h[8:1],,5h[8:1],,4,6h[16:1],7h[16:1],8h[16:1],1h[16:1],2,3,4,5,
6b,7,8,1-4[16:1],8,7,6h[16:1],1,,6,5,4,3,2,1,8b-4[16:1],
,2-6[16:1],,8bw4[16:1],,2,,8b,,,6/2,2/6,,,,,3b,
2,1,8-5[16:1],1,2,3h[16:1],8,,3,4,5,6,7,8,1h[16:3],
,,4,5,,4/1,5/2,6/3h[16:5],{48},,,,,,,,,,,,{24}1,8,7,6h/2h,1h/5h,8h/4h,
{1}7b/3b,
E
