&title=プラリネ
&artist=かしこ。
&first=0
&des=糖丘
&lv_5=12+
&inote_5=(131)
{1},,
{16}2h[4:1],,,,4,,,3,5,,6,,5/B7,,,,7h[4:1],,,,5,,,6,4,,3,,4/B2,,,,
{16}2h[4:1],,,,5,,,3,4,,6,,B5/8,,,,7h[4:1],,,,4,,,6,5,,3,,1b-5[8:1],,,,
{16}1,,6,,6,,4,,3,5,3,5,2^5[8:1],,,,6,,7,,5,,8,,6,4,5,2,6v1[8:1],,,,
{16}2,,3,,1,,4,,2,8,1,6,2q5[8:3],,,,7,,6,,8,,7,,3^1[8:1]/6^8[8:1],,,,,,,,
{2}7-5[8:1]/2-4[8:1],6p2[8:1]/3q7[8:1],{8}1-3[8:1],1,4pp6[16:3],4,E3/4x,,5,,
{2}7v4[8:1]/5v2[8:1],3v8[8:1]/1v6[8:1],{8}7-1[8:1],7,5qq3[16:3],5,E7/5x,,4,,
{2}2v3[8:1]/6v7[8:1],8^6[8:1]/4^2[8:1],{8}2-8[8:1],2,4pp6[16:3],4,E3/4x,,5,,
{4}6^3^6b[8:3],6/3,C,{8}2,12,8^6[8:1]/3^5[8:1],,,,
{16}4,,5,,3,4,2,,
{4}1-5[8:1]/5-7[8:1],5v2[8:1],{16}7,,6x,5x,,,{8}24,1,68,5,24,1-5[8:1],,16,,
{4}7-5[8:1]/4-2[8:1],4v7[8:1],{16}3,,2x,1x,,,{8}28,3,64,7,28,3-5[8:1],,36,,
{4}8-4[8:1]/4-2[8:1],4v7[8:1],{16}2,,3x,4x,,,{8}75,8,31,4,75,8-4[8:1],,83,,
{8}3^6[8:1],2,13,,6^3[8:1],7,86,,
{4}2-6[8:1],2w6[8:1],2bx^5b[8:1]*^7b[8:1],,
{16}8/3^6[8:1],,,8h[16:5],3,,,,6x^3[8:1],,8x,,8x,,,,
{16}1/3^6[8:1],,,8h[16:5],3,,,,6xv3[8:1],,8x,,8x,,,,
{16}4/1^6[8:1],,,4h[16:5],1,,,,6x^1[8:1],,4x,,4x,,,,
{16}4/1^6[8:1],,,4h[16:5],1,,,,6xv3[8:1],,4x,,4x,,,,
{4}5b/2b-4[8:1],6-4[8:1],2-4[8:1],5pp5[4:1],
{8}5qq5[4:1]/2h[8:1],,2h[8:1],,1,1,2q5V71[2:1]/4h[8:1],,
{4}C,4hx[8:1],5h[4:1],{8}1>4-6<1[2:1],1,
{4}Cf,,,38,
{8}3^5[8:1],2,13,,6-4[8:1],7,86,,3V57[4:1],3,7V53-1[4:1],7,C,,6,5,
{8}2/4-1[8:1]*p8[8:1],3,4,,7,6,7h[4:1]/5,,
{8}6^8[8:1],6,4^2[8:1],4,C,,27,,
{8}6^4[8:1],7,86,,3-5[8:1],2,13,,6V82[4:1],6,2<5[4:1],2,C,,3,4,
{8}2/4-1-3[4:1],3,3pp4[4:1],,1hx[4:1],,,5,
{8}3^5[8:1],3,7^5[8:1],7,C,,35,,
{8}6^4[8:1],7,86,,3-5[8:1],2,13,,6V42[4:1],6,2V46-8[4:1],2,C,,3,4,
{8}7/5-7[8:1]*q1[8:1],6,5,,2,3,2h[4:1]/4,,5qq5[4:1],,5pp5[4:1],,2h[8:1],,2h[8:1],,
{4}8-5[8:1],8h[8:1],1^4-6^1[2:1],1h[8:1],Ch[4:1],,2b/B6f/E7/E6/A6,37,
{8}6/4-2[8:1]*p8[8:1],5,4,,2,3,2h[4:1]/4,,3v5[8:1],3,
{4}4p5[8:3]*q3[8:3],,,
{16}6,7,5,8,{4}4>5[4:3],4,4,2^7[8:1],,7-4[8:1]*-5[8:1],,
{16}3,2,4,1,{4}5<4[4:3],5,5,
{16}7,,,6,,,35,,2h[16:3],,,1,,,38,,
{8}6h[4:1]/5h[16:3],,,,5hx[4:1]/E4,E3,E2,,6h[4:1]/5h[16:3],,,,5hx[4:1]/A3,A2,A1,,
{8}3h[4:1]/4h[16:3],,,,4hx[4:1]/E6,E7,E8,,3h[4:1]/4h[16:3],,,,4hx[4:1]/A6,A7,A8,,
{4}4/7-5[8:1],3-5[8:1],7-5[8:1],4qq4[4:1],
{8}4pp4[4:1]/7h[8:1],,7h[8:1],,8,8,7p4V28[2:1]/5h[8:1],,
{4}C,5hx[8:1],4h[4:1],{8}8<5-3>8[2:1],8,
{4}4hb[2:1],,,25,
{8}2^8[8:1],3,42,5,7-1[8:1],6,57,4,2V47[4:1],2,7V52[4:1],7,C,,6,5,
{8}2/4-1[8:1]*p8[8:1],3,4,,7,6,7h[4:1]/5,,
{8}6^8[8:1],6,4^2[8:1],4,C,,27,,
{8}7^1[8:1],6,57,4,2-8[8:1],3,42,5,6V82[4:1],6,2<5[4:1],2,C,,3,4,
{8}7/5p4[4:1],6,6<3[4:1],,6,,4,4,
{8}6^3[8:1],6,2^5[8:1],2,C,,64,,
{8}5/7^1[8:1],6,57,4,4/2-8[8:1],3,42,5,7V52[4:1],7,2V47[4:1],2,C,,3,4,
{8}7/5-7[8:1]*q1[8:1],6,5,,2,3,2h[4:1]/4,4,5qq5[4:1],,5pp5[4:1],,2,2,1,1,
{4}1-4[8:1],1h[8:1],8^5-3^8[2:1],8h[8:1],
{8}Ch[4:1],,,1,3b/B7f/E7/E8/A7,,26,,
{8}6/4-2[8:1]*p8[8:1],5,4,,2,3,2h[4:1]/4,,3v5[8:1],3,
{8}4-8[8:1],,7b,7,B6,,6v4[8:1],6,
{8}5-1[8:1],,2b,2,B3,,3v5[8:1],3,
{4}4h[2:1],8,8>8[2:3],
{1}Cf,
{4}4h[8:1],3h[8:1],2h[8:1],1h[8:1]/8h[8:1],
{16}7,,6,,8,,5,,7,1,8,3,7p4[8:3],,,,27,,3,,1,,2,,6^8[8:1]/3^1[8:1],,,,6b/3b,,,,
{4}7h[4:1]/2-5[8:1],,5-8[8:1]/6h[4:1],,8-3[8:1]/7h[4:1],,2-5[8:1]/6h[4:1],,
{4}2h[4:1]/7-4[8:1],,4-1[8:1]/3h[4:1],,1-6[8:1]/2h[4:1],,7-4[8:1]/3h[4:1],,
