&title=Defection
&artist=TeddyLoid feat. DELTA
&first=0.56
&des=Neopharmazz
&lv_5=13+
&inote_5=(160){16},,,,,,,,,,,,,,,,
,,,,,,,,,,,,,,1x/5x,2x/6x,
3x/7x>5[4:3],,,,,,,,,,,,,,,,
2<4[4:3],,,,,,,,E5,,,,,,,,
8qq5[4:3],,,,,,,,,,,,,,,,
1pp4[4:3],,,,,,,,E7,,,,,,,,
6z2[4:3],,,,,,,,,,,,,,,,
3s7[4:3],,,,,,,,E1,,,,,,,,
5-3v2-8[4:3],,,,,,,,,,,,,,,,
4-6v7-1[4:3],,,,,,,,E3,,,,,,,,
5h[1:1],,,,6,,6,,,,,,6,,,,
4h[1:1],,,,3,,3,,,,,,3,,,,
5h[4:3],,,,4,,4,,,,,,4,,,,
5,4,5,4,6,3,6,3,5,,3,3,,7,7b,,
1h[1:1],,,,2,,2,,,,,,2,,,,
8h[1:1],,,,7,,7,,,,,,7,,,,
1h[1:1],,,,8,,8,,,,,,8,,,,
,,,,27,,27,,45,,3,4,,6,5,,
4/E8,,,,6/B2,,,,3/E7,,,,5/C,,,,
1/E6,,,,7/B1,,,,2/B4,,,,8/E6,,,,
3/D7,,,,5/D1,,,,2/D8,,,,6/D4,,,,
1/D5,,,,7/D6,,,,4/D2,,,,8/D3,,,,
1/E6,,1,,2/E8,,2,,3/E2,,3,,4/C,,4,,
8/E4,,8,,7/E2,,7,,6/E8,,6,,5/C,,5,,
{12}3,3,3,6,6,6,2,2,2,7,7,7,
{16},,,,,,,,E8/B7/B6/E6/B5/B4/B3/B2/B1/B8,,,,,,,,
8b^5[8:1]/1b,,2,,3,,4,,7x^4[8:1]/8x,,1,,2,,3,,
1^4[8:1]/8,,7,,6,,5,,2x^5[8:1]/1x,,8,,7,,6,,
7/8^3[8:1],,6,,5,,4,,7x/6x^3[8:1],,8,,1,,2,,
2/1^6[8:1],,3,,4,,5,,2x/3x^6[8:1],,1,,8,,7,,
3^8[8:1]/4,,5,,6,,7,,6x^3[8:1]/7x,,8,,1,,2,,
1^6[8:1]/2,,3,,4,,5,,4x^1[8:1]/5x,,6,,7,,8,,
6h[4:1]/3qq6[8:3],,,,,,,,8x,,,,7,,6,,
5-8[8:1]/4h[4:1],,,,,,3h[4:1],,7x,,,,1,,8,,
27,,,,4V62-8[8:9]/5V37-1[8:9],,,,4b/5b,,,,,,,,
,,,,,,,,,,,,27,,18,,
4x/5x,,,,1-4[8:1],,4-1[8:1],,1-6[8:1],,6-3[8:1],,7,,E8,B8,
B1,E2,4-1[8:1],,5,,4,,E8,E7,E6,,E2,E3,E4,,
5x/4x,,,,8-5[8:1],,5-8[8:1],,8-3[8:1],,3-6[8:1],,2,,E2,B1,
B8,E8,5-8[8:1],,4,,5,,E2,E3,E4,,E8,E7,E6,,
4x/5x,,,,2-5[8:1],,7-4[8:1],,2,,7,,E2,B2,E8,B7,
E5,D5,8,,1,,E8,B7,E2,B2,B6,E6,B3,E4,E1,C,
E5f,,,,,,,,,,,,,,8,1,
{12}8h[6:1],,7h[6:1],,6h[6:1],,1h[6:1],,2h[6:1],,3h[6:1],,
{16}4>5[8:7],,,,,,1>5[8:4],,,,,,,,,,
,,,,,,,,4,,6,,2,,8qq5[8:4],,
2h[8:7],,,,,,,,,,,,,,1pp4[8:4],8,
7h[8:7],,,,,,,,,,,,,,2qq7[8:5],3,
4h[8:8],,,,,,,,,,,,,,,,
{32}7,8h[32:11],{16},,,,,1h[8:3],,D2/A2f/D3,,,,5h[8:2],,,,
4>8[8:4],,,,6,,6,,B5/B6,,6,,,,8,1,
{12}7h[6:1],,5h[6:1],,1h[6:1],,2h[6:1],,4h[6:1],,8h[6:1],,
{16}5<1[8:4],,,,3,,3,,B4/B3,{32},3,{16}4,,,4,,,
4h[16:3],,,8h[16:3],,,6h[8:1],,5h[16:3],,,1h[16:3],,,3h[8:1],,
1^4[8:3],,,,8,,8,,B8/B7,,8,,,,6,7,
8^5[8:3],,,,1,,1,,B1/B2,,1,,,,,,
2qq7[16:5]/6qq3[16:5],,,,,,,,C,,,,84,,15,,
2-6[8:1]/6,,,,,,7,7,E1/B8/B1,,6,5,,3,4,,
8h[4:1]/1,,3,,4h[4:1],,6,,5h[4:1],,2,,4h[4:1],,7,,
5h[4:1],,1,,3h[4:1],,8,,6h[4:1],,5,,2h[4:1],,4,,
7h[4:1],,8,,2h[4:1],,1,8,7h[4:1],,6,,2h[4:1],,3,,
7h[8:1],,1,8,2h[4:1],,1,,6h[8:1],,5,6,4,5,3,,
7h[8:1]/2,,6,,2h[8:1]/7,,3,,7h[8:1]/1,,5,,2h[8:1]/8,,4,,
72,,65,,27,,34,,71,,65,,28,,34,,
1,1,8,8,2,2,7,7,{24}1,2,3,8,7,6,2,3,4,7,6,5,
C,,,,,,C,,,,,,C,,,,,,C,,,81,72,63,
{16}5b-8[8:1]/4b,,3,,15,,2,,4-1[8:1]/5,,6,,84,,7,,
5-2[8:1]/2,,3,,57,,8,,4-7[8:1]/7,,6,,42,,1,,
8/6^4[8:1],,7,,61,,2,,1/3^5[8:1],,2,,38,,7,,
6^1[8:1]/3,,5,,46,,2,,3^8[8:1]/6,,4,,53,,7,,
2/4<8[8:1],,3,,41,,2,,7/5>1[8:1],,6,,58,,7,,
8V64[8:1]/6,,7,,81,,2,,1V35[8:1]/3,,2,,18,,7,,
7-4[8:1]/8-3[8:1],,61,,78,,,,2-5[8:1]/1-6[8:1],,38,,21,,,,
8,1,8,1,27,,45,,,,45,,27,,1,8,
A1,,A8,,A3,,A6,,A2,,A7,,A4,,A5,,
B1,B8,B3,B6,B2,B7,B4,B5,{24}1,8,1,7,2,7,3,6,3,5,4,5,
{16}3>7[4:1],,,,7>3[4:1],,5,,3,,5,,7,,B7,B2,
E6,E4,7-3[8:1],,3-7[8:1],,7,,1-5[8:1],A2,A3,,1,A8,A7,,
6<2[4:1]/3,,,,2<6[4:1],,4,,6,,4,,2,,B2,B7,
E4,E6,2-6[8:1],,6-2[8:1],,2,,8-4[8:1],A7,A6,,8,A1,A2,,
18,,78,,21,,67,,23,,65,,34,,45,,
6,6,5,7,3,3,4,2,7,7,8,6,2,2,1,3,
8b-5b[8:3]*>5b[8:3],,,,,,,,,,,,64,,53,,
4<2b[8:3]/2-6b[8:3],,,,,,,,,,,,34,,45,,
5q2b[8:3]/6-3b[8:3],,,,,,,,,,,,16,,85,,
7pp7b[8:3]/4^7b[8:3],,,,,,,,,,,,65,,54,,
4<1b[8:3]/3,,,,,,,,,,,,34,,56,,
7-2b[8:3]/8p4b[8:3],,,,,,,,,,,,67,,58,,
1-4b[8:3]/4-1b[8:3],,,,,,,,,,,,37,,26,,
1>1b[8:3]/5>5b[8:3],,,,,,,,,,,,24,,75,,
6bV84-2b[8:6]/3b,,,,,,,,,,,,,,,,
1h[8:3],,,,,,2h[8:3],,,,,,3h[8:3],,,,
,,4w8[8:5],,,,,,,,,,,,,,
,,6,,5,,7,,4,,8,,3,,1,,
2-7-3-6[8:6],,,,,,,,,,,,,,,,
8h[8:3],,,,,,7h[8:3],,,,,,6h[8:3],,,,
,,5s1[8:3],,,,,,,,8,,7,,6z2[8:5],,
3bs7[8:4],,,,,,,,,,,,,,,,
8,1h[16:23],5h[8:11],,,,,,,,,,,,,,
,,,,,,,,Cf,,,,,,,,
,,,,,,,,,,,,,,,,
,,,,,,,,,,,,,,,,
,,,,,,,,,,,,,,,,
E
