&title=Montagem Miau
&artist=我叫小白李
&first=0.084
&des=哈基M钠没露朵
&lv_5=13+
&des_5=哈基M钠没露朵
&inote_5=
(132){4}6b/3pp6[2:1],,,,2bx/7pp2b[2:1],
{32},,,,,,,,,,,,,,,,7x,6x,{16}5x,,,{4}5/4>6[2:1],
5,5,5,
{12}5/6xh[6:1],5,5,4/3xh[6:1],4,4,E2,E3,E4,E8,E7,E6,
{16}5b/3bqq3[4:1]*qq3qq3[2:1]*qq3qq3qq3[4:3],,,5,{8}6x,7x,{32}7bx/A3f,6,{16}5,{32},,,,7bx/A3f,6,{16}5,{48},,,,,,{12}7h[12:1],
5h[12:1],8h[12:1],6h[12:1],{6}1,{96}1bx/5bx,,,8x/4x,,,{16}3x/7x,{32},,,,1bx/5bx,8x/4x,{16}7x/3x,,,4b/6bpp6[4:1]*pp6pp6[2:1]*pp6pp6pp6[4:3],
,,4,{8}3x,2x,{32}2bx/A6f,3,{16}4,{32},,,,2bx/A6f,3,{16}4,{48},,,,,,{12}2h[12:1],
4h[12:1],1h[12:1],3h[12:1],{6}8,{96}8bx/4bx,,,1x/5x,,,{16}6x/2x,{32},,,,8bx/4bx,1x/5x,{16}2x/6x,,,1b/2bpp2b[4:1]*pp2pp2b[2:1]*pp2pp2pp2b[4:3],
,,8,{8}7x,6x,{32}6bx/A2f,7x,{16}8x,{32},,,,6bx/A2f,7x,{16}8x,{48},,,,,,{12}6h[12:1],
8h[12:1],7h[12:1],1h[12:1],8,8,{32}8bx/4bx,7x/3x/E8/E4,{16}6x/2x/E7/E3,{32},,,,7bx/3bx,6x/2x/E7/E3,{16}5x/1x/E6/E2,,,8b/7bqq7b[4:1]*qq7qq7b[2:1]*qq7qq7qq7b[4:3],
,,1,{8}2x,3x,{32}3bx/A7f,2x,{16}1x,{32},,,,3bx/A7f,2x,{16}1x,{48},,,,,,{12}3h[12:1],
1h[12:1],2h[12:1],8h[12:1],1,1,{32}1bx/5bx,2x/6x/E2/E6,{16}3x/7x/E3/E7,{32},,,,2bx/6bx,3x/7x/E3/E7,{16}4x/8x/E4/E8,,,{1}4bs8[2:1]/5bz1[2:1],
1b-4[2:1]/6b>4[2:1],
3bV14[2:1]/5bV74[2:1],
3bpp4[2:1]*V14[2:1],
{4}8<4[4:1],4V28[4:1],8V64[4:1],4p6[4:1],
6q4[4:1],4>8[4:1],{2}8x<4[4:1],
{4}1qq1pp1qq1pp1qq1pp1[4:5],A1f,A1f,A1f,
A1f,A1f,5b/A1f/E1f/E2f,4b/Cf/B8f/B7f,
4>8b[4:1],8V64b[4:1],4V28b[4:1],8p2b[4:1],
2q8b[4:1],8<4b[4:1],{2}4x>8b[4:1],
{4}5pp5qq5pp5qq5pp5qq5b[4:5],A5f,A5f,A5f,
A5f,A5f,2b/A5f/E6f/E5f,6b/Cf/B2f/B3f,
{12}1-5[12:1],1,1,7-3[12:1],7,7,2-6[12:1],2,2,4-8[12:1],4,4,
3-7[12:1],3,3,6-2[12:1],6,6,1-5[12:1],1,1,7h[12:1],,,8v5b[12:1],
8,8,2p6[12:1],2,2,7p3b[12:1],7,7,5-1[12:1],5,5,
6-8-2b[12:1],6,6,3-7[12:1],3,3,8-4b[12:1],8,8,2bh[12:1],,,7-5[12:1],
7,7,7/1-5b[12:1],1,1,1/6-2[12:1],6,6,6/4-8b[12:1],4,4,
4/5-7[12:1],5,5,5/1-3b[12:1],1,1,1/8,8w4[12:1],8,8xh[12:1],,,2>5[12:1],
2,2,2/8<5[12:1],8,8,8/1-5[12:1],1,1,1/8,8,8h[4:1],
D2,D3,D4,D8,D7,D6,B1/E2,B2/E3,B4/E4,E8/B8,E7/B6,E6/B5,
{6}4b>3-1[8:1],{12}6,4b-8[8:1],{24},{8}8,{4}4bxw8[8:1],4bx,
{12}5b<6-8[8:1],3,3,5b-1[8:1],{24},{8}1,{4}5xw1[8:1],5b,
{6}7h[6:1],{12}6b,2h[8:1],{24},{8}3b,{4}6bx/B3f/B4f/Cf,2bx/B7f/B8f/Cf,
{12}4xw8[8:1],4,{6}4,{12},,{4}3/Cf/B5f/B6f,7/Cf/B1f/B2f,
5b/4bv3[8:1],4bqq3[0.9091##0.2273]/5bpp6b[8:1],A5f,A4f,
{12}8bx/1bx,8bx/1bx,8bx/1bx,1pp3>1pp3[12:5]/8qq6<8qq6[12:5],,,{4}A8f/A1f,A8f/A1f,
{6}8b<7-5[8:1],{12}2,8b-4b[8:1],{24},{8}4,{4}8bw4[8:1],8b,
{12}1b>2-4b[8:1],7,7,1b-5[8:1],{24},{8}5,{4}1b/4bw8b[8:1],4b/Cf,
E
