&title=Long Elevator
&artist=Toby Fox
&first=0.04
&des=神谱
&clock_count=4
&lv_5=1
&inote_5=(100)
{1},
{16}4xp5-8^7[8:75]/5x,6x,7x,
(200)
{16}
1b,8,1,8,1,8,1,8,
1,8,1,8,1,8,1,8,
1b,8,1,8,1,8,1,8,
1,8,1,8,1,8,1,8,
2b,4,2,4,2,4,2,4,
2b,4,2,4,2,4,2,4,
5b,6,5,6,5,6,5,6,
5,6,5,6,5,6,5,6,
8b,7,8,7,1,6,1,6,
8b,7,8,7,1,6,1,6,
3b,4,3,4,2,5,2,5,
3b,4,3,4,2,5,2,5,
1b,8,2,7,1b,8,2,7,
1b,8,2,7,1b,8,2,7,
5b,8,4,6,5b,8,4,6,
5b,8,4,6,5b,8,4,6,
1b,5,2b,6,3b,7,4b,8,
3b,7,2b,6,1b,5,8b,4,
1b,5,3b,7,5b,1,3b,7,
1b,5,3b,7,5b,1,3b,7,
1b,8,3b,4,1b,8,5b,6,
1b,8,3b,4,1b,8,5b,6,
2b,4b,3b,6b,5b,7b,4b,8b,2b,1b,3b,7b,4b,6b,2b,8b,
3b,5b,4b,7b,4b,6b,3b,7b,1b,8b,2b,6b,3b,5b,1b,7b,
2b,4b,3b,6b,5b,7b,4b,8b,2b,1b,3b,7b,4b,6b,2b,8b,
{32}1b,2b,3b,4b,5b,6b,7b,8b,1b,2b,3b,4b,5b,6b,7b,8b,{24}1hx[384:1],2hxx[384:1],3hxx[384:1],{16}4hxx[384:1],5hxx[384:1],A6,
