&title=sweet rain
&artist=Y&Co. feat.karin
&first=-1.29
&des=flawi
&lv_5=13+
&des_5=flawi
&inote_5=
(155){4},{8},,,,,,7/4,
4qq1[8:11],,,,,,,,,,,,,,,{1}2h[8:13]/4q6[4:5],
{16},,,,,,,,,,,,3,5,{8}3,
4/7,5b/8h[8:13],,,{4}6,4,
5,3,2,1,
{8}6/1h[8:1],5h[8:1],2h[8:1],4h[8:1],1,1,{16}2,4,3,5,
{4}4>5[2:1],,,1,
{8}7/3,6/2,3/5h[4:1],{16}1>4[8:1],1,,,{8}1/7,6,8/4,
{16}7,5,6,5,{8}7h[8:1],{16}4,4,{8}8-4[8:1],6/2,8/3,1,
{16}2,5,3,4,{8}3h[8:1],{16}7-3[8:1],7,{8}4,1/7,2,4/6,
{16}7,5,8,2,{8}6h[8:1],{16}3,5,2,8,{8}4h[8:1],6,7/3,
{16}5h[16:3],4,,2,{8}2/8,{16}6<1[8:1],3,6,1,{8}6,5,8/3,
{16}7,4,4,6,{8}2h[8:1],{16}8,1,6,5,{8}7-3[8:1],8/2,1/7,
{16}2,2,4,1,{8}6h[8:1],{16}3v8[8:1],5,1,4,{8}3,6,7/1,
{16}8h[8:1]/4h[8:1],,,6h[8:1]/2h[8:1],,,{8}7h[8:1]/3h[8:1],{16},1h[8:1]/5h[8:1],,,{8}6b/2,4b/8,
{4}7b/3b,{8}7/3h[4:1],6,5,3,5/2<4[8:3],6,
{4}8/2,{8}8,8-4[8:1],,8/3,,2,
2>5[8:1],8,7,6v1[8:1],,6,,6/2-6[8:1],
,2/7,{4}8-4[8:1],8<5[8:1]*>3[8:1],8,
6/2,{8}5-1[8:1],5,2,3,4>1[8:1],5,
{4}4/6-2[8:1],{8}3,3-8[8:1],,3/7,,5,
2/6V84[4:1],6,1,2,3V15[4:1],3,8,7,
6,8/4,,7-2[8:1]/3-6[8:1],,7b/3b,{16},,4,8,
{4}3V51[4:1],{8}3/8,7-4[8:1],8,2q6[8:1],,2/8-4[8:1],
,8/3-7[8:1],,3/5V71[4:1],,5/1,2,2h[4:1],
,8>6[4:1],,,,1-7[8:1]*-3[8:1],,1,
,6-1[8:1],2,6V84[4:1],,6/3,{4}2,
5b/1b,{8}1-5[8:1],8>6[4:1],1,8,,2-5[8:1],
,7-3[8:1]/2-8[8:1],,2/7<4[8:1],,7/3,2,1,
{16}7,8,7,8,6,1,5,2,4,3,4,3,5,2,6,3,
{8}4b/7b,5b/2b,,8b<5[8:1]/1b>4[8:1],,8b/1b,,,{4}5/7-3[8:1],
7/1V35[4:1],{8}5/1,6<1[8:1],7,6>3[8:1],
,6-2[8:1],,6/8-4[8:1],,8/6,{4}5<8[8:1],
5/2-6[8:1],{8}2-4[8:1],4-8[8:1],2,7-4[8:1],,7>1[8:1],
,3-6[8:1]/7-3[8:1],,7/3<8[4:1],,8,1,2,
{4}3-8[8:1]*-6[8:1],3,{8}7-4[8:1],1-5[8:1],7-1[8:1],1,
7,2,{4}4<7[8:1]*>1[8:1],4,{8}5/3,6/2,
1/7qq4[8:5],,,8>4[4:1],{2}8,
{16}3,5,4,6,1,7,3,6,5w1[8:1],7,4,6,{4}5,
7b-4[8:1]/3b-8[8:1],3/7>2[8:1],{8}7<4[8:1],3-7[8:1],7,3-5[8:1]*-6[8:1],
,3-8[8:1]*-1[8:1],,3<8[4:1],,3,2-6[8:1],1,
2/7-4[8:1],8,7/2-6[8:1],1-5[8:1],2,1<6[8:1]*-6[8:1],,1-4[8:1]*>4[8:1],
,1w5[8:1],,1,,7/3,8-4[8:1]/2-5[8:1],1,
{4}8<5[8:1]/2-6[8:1],8/2,{8}3-1[8:1],8-4[8:1],3-5[8:1],8-6[8:1],
3,8,2-6[8:1],1,{4}2/8p4[8:1]*q4[8:1],8,
{8}5h[4:1]/3h[4:1],,,5<8[4:1]/3>8[4:1],{2}5/3,
{16}1,7,1,7,2,8,2,8,3,7,4,6,3,5,2,6,
1,1h[16:3],,7,{8}7,{16}5,3,4,2,5,1,7,8,6,2,
5,4,6,6,3,5,2,2,4,3,6,1,7,8,6,5,
7b,4,6,3,5,2,7,4,8b,3,5,1,6,6,1,1,
7,8,6,1,5,2,4,3,5b,6,7,8,{32}4,3,2,1,8,7,6,5,
{1}8bqq5[2:3]/4bqq1[2:3],
{8},,,,,,,,7qq8[2:1]/3qq4[2:1],
,,,,,,5/1,
,3/7,,8/4,,6/2,,7/3,
{4}1b/5pp1[2:1],1,2,3,
4qq8[2:1],8,7,6,
{8}5/3,5,1/7,1,2/8,3,4/7,6,
{16}5,4,{8}3b-8[8:1]/6b-1[8:1],,6b-4[8:1]/3b-5[8:1],,6b/3b,{16},,7,2,
{4}7V15[4:1],{8}7/4,3-7[8:1],2,3,6,5>2[8:1],
,5/7-3[8:1],,7/1V72[4:1],,1/5,{4}6,
{8}7-4[8:1],6,7/3,1,2-5[8:1],3,2/6,8,
7V51[4:1],4,3-7[8:1],2,3V52[4:1],8,3/1,8,
{4}7<4[8:1],1/7-3[8:1],{8}7/2>8[4:1],1,2/6,7-3[8:1],
,7/1,2-5[8:1],5,{4}2/6-1[8:1]*<8[8:1],6>4[8:1]*-3[8:1],
{8}6,,,1V35[4:1],{2}1/7h[8:3],
{16}6,5,{8}7b/4,{16}3,2b/4,,7,{8}8/6b,{16}3/4,2b/5b,{32},,,,7/3,6,5,4,
{8}1b-5[8:1],{16}7,7,{8}1,{16}6,6,4-7[8:1],5,{8}3,4/2,1,
{16}2,8,3,5,4,7,5,6,1,8,3,4,2,2,5,5,
{8}4>1[8:1],{16}6,6,{8}4,{16}7,5,6,4,{8}8-4[8:1],7/3,8/2,
{16}3,3,5,4,7,8,6,6,2,1,5,6,3,8,4,7,
{8}5/6v1[8:1],{16}3,3,{8}6,{16}2,2,8<5[8:1],4,{8}7,8/3,1,
{16}2,4,1,7,5,5,8,8,4,6,3,3,5,1,7,7,
2-6[8:1],2,8,8,{8}2,{16}7,7,5,8,4,7,1,1,{32}5,6,7,8,
{16}1b/4b,,,6b/2b,,,{8}8b/4b,{16},7b/3b,,,{8}1b/5bw1[8:1],7b/3b,
{1}5b,
E
