&title=Last Samurai
&artist=Street
&first=0.033
&lv_6=14.2
&des=Matikane
&inote_6=(172){4},{1},{4},(57.333){48}4/5,
,,,,2,3,4,5,6,7,8,{4}6b/1h[4:1],
2h[4:1],3h[4:1],4p1[8:3],4h[2:1],
,8h[4:1],{6}2q6[8:1],{24}8,1,{12}2b/7bp3[8:1],8,8,
7/2p5[8:1],1,1,2/6p1[8:1],8,7,6/3q8[8:1],4,4,3/7q4[8:1],6,6,
7/1p5[8:1],2,3,1/4>5[4:1],3,2,{4}4/1h[6:1],Cf,
{12},,,5/4,{24}3,4,6,5,4,3,5,6,4/7,3/8,{8}2b/1p3[8:1],2,
{12}1/7q5[8:1],6,{24},,{8}7/1p3[8:1],2<5[8:1],{12}1/7,6h[12:1],{24},,{8}8<5[8:1],4p4[64:7],
{12}8/3>5[6:1],4,,{4}6h[3:1],{12}4,4,{24},,{8}6/2p4[8:1],3,
{12}2/6p8[8:1],7,{24},,{8}6/2p4[64:7],3<1[8:1],{12}2/6,6h[12:1],{24},,{8}5<8[8:1],1q1[64:7],
{12}5/2>8[24:5],1,,{4}6h[12:5],{12}1-4[16:1],2,3,7/1b-6[16:1],{24}6,3,{12}5,
3/1b-4[16:1],{24}4,7,{12}5,7/1b-6[16:1],{24}6,3,{12}5,1b/3>8[16:1],4,5,6/3b<6[16:1],{24}7,1,{12}8,
8/3b>8[16:1],{24}7,5,{12}6,6/3b<6[16:1],{24}7,1,{12}8,3b/7p3[16:1],8,1,7b/2q6[16:1],{24}1,4,{12}3,
2b/7p3[16:1],{24}8,5,{12}6,7b/2q6[16:1],{24}1,4,{12}3,2b/6v1[16:1],8,7,6b/2v5[16:1],{24}3,8,{12}1,
2b/6v1[24:1],{24}7,4,{12}5,6b/2v5[24:1],{24}3,8,{12}1,2b/5w1[16:1],6x/4x,7/3,{192}5b`B5f,,,Cf/B1f,,,{32}B2f/B8f,,,,,,,{4}6b>2[4:1]*p2[12:1],
6<2[32:7],6>2[4:1]*-2[32:3],6<2[32:7],
6>2[4:1]*-2[32:3],6<2[32:7],6,3b<7[4:1]*q7[12:1],
3>7[32:7],3<7[4:1]*-7[32:3],{2}3>3[12:11],
{4},Cfh[2:1],{12},,,,,,2/1,
8/7,6/5,4/3V15[6:1],{24}8-6[12:1],1,{12}8,3b/1,8b,,5/6V84[6:1],{24}1-3[12:1],8,{12}1,
6b/8,1b,,6/2V48[6:1],{24}5-7[12:1],4,{12}5,2b/1,5b,,7<4[12:1]`1>4[12:1],{24}4w8[12:1],5/3,{12}6/2,
{4}1b/7b,{12}8/2V48[6:1],{24}5-1[12:1],4,{12}5,2b/4,5b,,2/7-4[12:1],{24}1-5[12:1],8,{12}3-8[12:1],
7b,1b,3b,4h[3:1],,,7-3[12:1],3-6[12:1],6-2[12:1],2>8[16:3]*>8[16:3],8,3,
{4}1bh[6:1],{12}4/2V41[8:1],{24}8-6[12:1],1-5[8:1]*-5[8:1],{12}8,2b/1,8b,,7V58[8:1],{24}1-3[12:1],8-4[8:1]*-4[8:1],{12}1,
7b/8,1b,,3V14[8:1],{24}7-5[12:1],4-8[8:1]*-8[8:1],{12}7,3b/8,7b,,6<1[12:1]*>1[12:1],{24}6/1w5b[12:1],2/5,{12}3/4,
{4}6b,{12}5/7V58[8:1],{24}2-6b[12:1],8-4[8:1]*-4[8:1],{12}1,7b/3,2b,,2V41[8:1],{24}7-3b[12:1],1-5[8:1]*-5[8:1],{12}8,
2b/6,7b,,7V58[8:1],{24}2-6b[12:1],8-4[8:1]*-4[8:1],{12}1,7b/3,2b,,8w4b[12:1],{24}8/4w8b[12:1],5/1,{12}6/2,
{4}8b,{12}5v2[24:1]/3v6[24:1],{24}1/4w8[24:1],2/6,,6/2,,,,,,,{12}7v2[24:1]/1v6[24:1],{24}3/8w4[24:1],6/2,,2/6,
,,,,,,{12}6pp8[24:1]/4qq2[24:1],{24}2/5v7[24:1]*v3[24:1],7/3,,7/3,,,,,,,{12}7qq5[24:1]/1pp3[24:1],{24}3/8v6[24:1]*v2[24:1],6/2,,6/2,
,,,,,,{12}2pp4[24:1]/6pp8[24:1],{24}8pp2[24:1]/4pp6[24:1],3/7,,3/7,,,,,,,{12}7qq5[24:1]/3qq1[24:1],{24}1qq7[24:1]/5qq3[24:1],6/2,,6/2,
,,,,,,{12}7v5[24:1]/3v1[24:1],{24}1V35[24:1]/5V71[24:1],6/2,,6/2,,,,,,,8v3[24:1]`4v7[24:1],3`7,6v1[24:1]/2v5[24:1],5`1,{12}4bV68b[24:1]/8bV24b[24:1],
B8f`B4f,B2f/B6f,{6}A1f/A5f`A3f`A7f,
E
