&title=Igallta
&artist=Se-U-Ra
&first=0
&des=Sc_Ar
&wholebpm=230
&des_5=
&lv_5=14+
&inote_5=(230){1}
,{1}
,
{4},,,{24}1-5[8:1]/8-4[8:1],2/7,3/6,,,,{8}1/8,,,3/6,{16},4/5,3/6,2/7,{4}1/8,
{16}1,8,1,8,1,8,1,8,1,8,1,8,1,2,8,7,2,3,7,6,3,4,6,5,Cf,,,,,,,,
{4}6/4,1,{12}2,3,4,{4}5-1[16:3],{8}3h[4:3],,,E8,,,B4,,
{4}2/8,{8}5,4,{12}7,6,5,{4}4-8[16:3],{8}6h[4:3],,,E2,,,B5,,
{4}2/4,7,{12}3,4,5,{4}6V82[32:9],{8}4h[4:3],,,B3,,,E8,,
{8}1/2,3/8,,,5,{16}3,4,{8}3,2,{2}1b/5b,3b/7b,
{8}8/3,3,8/2,,{12}8/2,3,4,{8}8/5qq1[4:3],,8,,8,,8,,8,,
{8}8/3,7,6/3,,{12}3/8,7,6,{8}3/5,,1/7,,3,2/4,,6,5/7,,
{16}2,3,4,5,7,6,5,4,2,1,8,7,6,5,4,3,7/2,6,5,4,2,3,4,5,8,7,6,5,4,3,2,1,{1}8b/4b,
{8}E1,E6,E3,E8,E5,E2,,,
{8}6/4,2>5[8:1],,{16}1,8,7,6,,,{8}2-5[8:1],{8}5,2,7-3[8:1],3V58[16:3],7,2,1,
{8}2,7<4[8:1],,{16}8,1,2,3,,,{8}7-4[8:1],{8}4,7,2-6[8:1],6V41[16:3],2,7,8,
{8}7,2>5[8:1],,{16}E5,E6,E7,E8,,,{8}3-8[8:1],{8}8,3,6-2[8:1],2V85[16:3],6,3,4,
{8}3,7<4[8:1],,{16}E5,E4,E3,E2,,,{8}6-1[8:1],{8}1,6,3,4,5,6<3[1:3],,
{8}E6,B5,B4,E4,E6,B5,B4,E4,E6,B5,B4,E4,E6,B5,B4,E4,
{8}E1,,,E5,,,E3,,,E7,,,C,,,,
{8}8h[4:1]/1,,1,8h[4:1]/2,,2,8h[4:1]/3,,3,8h[4:1]/4,,4,8h[4:1]/5-1[8:1],,5b,,
{8}7,2-5[8:1],5,2,8-4[8:1],4,8,1,{24}2v5[8:1],3,4,6,7,8,2,,,,,,{16}7-3[8:1],8,6,1,7,,,,
{8}2,1>4[8:1],8,7,6<1[8:1],5,4,3<6[8:1],2,1,8>3[8:1],7,6,5,4,,{8}6/8,,,2,1/3,8,,5,6/4,,2/8z4[16:5],,Ch[2:1],,,,
{8}E5,E6,E7,E8,,2,3,,E5,E4,E3,E2,,7,6,7,3,4,5,6,5,4,3h[2:1],,7h[4:3],,,,1-5[8:1],,1,,
{8}1h[4:1]/8,,8,1h[4:1]/7,,7,1h[4:1]/6,,6,1h[4:1]/5,,5,1h[4:1]/4-8[8:1],,4b,,
{8}3,6-1[8:1],1,6,4-8[8:1],8,4,5,{24}6v1[8:1],7,8,2,3,4,6,,,,,,{16}3-7[8:1],4,2,5,3,,,,
{8}6,5<8[8:1],4,3,2>5[8:1],1,8,7>2[8:1],6,5,4<7[8:1],3,2,1,8,,{8}2/4,,,6,5/7,4,,1,{4}2/8-4[2:1],E2,E7,B3,
{8}3/7h[4:3],,,5,,,4<7[4:1],,2h[4:3],,,,4,,5>2[4:1],,7h[4:3],,,5,,,4<7[4:1],,1,2,3,4,5,6,7,8,
{8}1/2,8/3,,5/6,4/7,,,1,6,4,{24}8,7,6,{8}3,4,2,5,1,{16}6,5,4,3,2,1,8,7,6/1,2,3,4,5,6,7,8,{1}1b/5b,
{4}5/3h[4:1],8h[4:1],{12}6,5,4,{4}3>7V13[4:3],{8}E7,,,E4,,,B5,,
{4}4/6h[4:1],1h[4:1],{12}3,4,5,{4}6<2V86[4:3],{8}E3,,,E6,,,5,4,
{4}3h[4:1],8h[4:1],{12}6,5,4,{4}3>7V13[4:3],{8}E7,,,E4,,,B5,,
{16}6,7,{8}8h[8:5],,,{4}5,3V58V26[4:3],B8,,B5,,
{4}7h[4:1]/5,4,{8}6,1,5,3,8h[4:1],,5,6,1h[4:1],,3,,7,,4/6,,{16}3,4,3,2,,,,,8h[4:1],,,,B7,,3h[4:1],,,,B2,,6h[4:1],,,,
{8}2,3,4/6,7,1/8,2,3/5,2,{16}8/1,7,6,5,3,2,1,8,4,5,6,7,1,2,3,4,{1}5b/1bw5[2:1],
{4}7h[4:1]/3,5h[4:1],8-4[8:1],8,
{8}2v5[8:1],5V38[4:1],2,6,7-4[8:1],6,,2,,3/5,1/7-4[8:1],4V61[4:1],2-6[8:1]/7,,2,,
{8}7v4[8:1],4V61[4:1],7,3,2-5[8:1],3,,7,,6/4,8-4[8:1]/2V47[4:1],,{2}2/8,
{8}8/2v5[8:1],3,{16}8/2,7,{8}6,3v8[8:1],7<4[8:1],3,7,,{8}2/6,{4}8<4[64:13]/4>8[64:13],8v2[8:1]/4v6[8:1],,
{16}3h[8:1],,8,7,6h[8:1],,2,3,4h[8:1],,7,6,5h[8:1],,2,2,{32}8,7,6,5,{16}2,,{32}8,7,6,5,{16}3,,{32}8,7,6,5,4,3,2,1,8,7,6,5,4,3,2,1,{1}8b,
{32}2b/8h[4:1],3,4,5,{4}6,{32}1h[4:1]/7b,6,5,4,{4}3,
{32}1b/8h[32:31],2,3,4,5,6,7,,1,2,3,4,5,6,7,,1,2,3,4,5,6,7,,1,2,3,4,5,6,7,,1,,,,,,,,
{8}2-4[8:1],4-2[8:1],2-7[8:1],7V51[4:1],,,,,
{8}8/7-3[8:1],6,{16}8/7,1,{8}2,6v1[8:1],2-5[8:1],6,2,
{8}E7/B7,B5,{16}A4,A3,A2,A1,{8}E8,E7,E6,,
{8}5<8[8:1]/3,2,{16}1/5,2,3,4,{8}1v6[8:1]/5,2>5[8:1],1,2,7,
{16}3,4,2,,6,5,{8}7v4[8:1],1,7,
{8}2-5[8:1],5,2,8-4[8:1],4,8,1,5,2,{16}6,2,6,2,6V82b[8:3],2V46[16:5],6,2,6,,,,,,,,
{8}8,5h[32:11],1h[32:7],,{32}4x/8x,3x/7x,2x/6x,1x/5x,
{8},6h[4:1],2h[4:1],,4h[32:11],8h[32:7],,{32}5x-2[8:1]/1x-6[8:1],6x/2x,7x/3x,8x/4x,{8},,,
{8}1-5[8:1],5,1,7-4[8:1],4V61[4:1],7,2,3,{8}E3/B3,B1,{16}A8,A7,A6,A5,{8}E4,E3,E2,,
{8}1/7,1/7,3/5,3/5,{16}8/4,7,{8}6/3,2/6,1/6,{16}1/5,2,{8}3/6,7/3,8/3,2/1,1/8,2/7,3/6,
{16}4,5,3,5,4,6,4,5,3,5,4,6,4V28-5[8:5]*V68-3[8:5],5,3,5,{1}4,
{8}6/4,2>5[8:1],,{16}1,8,7,6,,,{8}1<6[8:1],{8}2,3,4>1[8:1],5,6,7,8,
{8}1,7<4[8:1],,{16}8,1,2,3,,,{8}8>3[8:1],{8}7,6,5<8[8:1],4,3,2,1,
{8}8,2>5[8:1],,{16}E5,E6,E7,E8,,,{8}1>4[8:1],{8}8,7,6<1[8:1],5,4,3,2,
{8}1,7<4[8:1],,{16}E5,E4,E3,E2,,,{8}8<5[8:1],{8}1,2,3>8[8:1],4,5,6,7,
{8}8,1>4[8:1]*<6[8:1],,{16}D2/D1,D3/D8,D4/D7,,{8}5,7/4,6,2/5,3,6-4[8:1]/4,7,
{8}6/3,2-5[8:1],,7/2,8-4[8:1],,1/8,2,,3/6,{16},1/8,2/7,3/6,{4}4/5,
{16}4,5,4,5,4,5,4,5,4,5,4,5,3,4,6,5,2,3,7,6,1-5[8:1],2,8,7,{64}1b,B1/B5/Cf,,,,,,,,
