&title=うっちゃい
&artist=Yuri
&first=0
&des=Caramelß
&des_5=
&lv_5=13+
&inote_5=(150){4},{16},,,,
{42},
{16}1x-7[32:3]/6xqq4[32:3],,,,,,,,8x-6qq4[32:3]/2x-7[32:3],
,,,,,,,5x<6-8[4:1]/2x-4[16:1],,,,5x/2x,,{32}D7,A7,
D8,A8,{16}4xh[4:1],,,,Cf,,,,6h[32:17],,8,,1-5[16:1],,,,1,
,,,7h[32:17],,1,,2-4[16:1],,,,2,,,,E8,
,E4,,Cf,,,,3h[32:17],,1,,8p4[16:1],,,,8bx,
,,,2h[4:3],,8,,7<5[32:3],,,,7b,,,,8,
,7/1,,6b/8b,,,,5-7[8:1],,4,,5/3-5[8:1],,2,
,3bx,,,,3/6V82[4:1],,2,,6/3,,4,,5,,,,B7/B8,
,B4/B3,,Cf,,,,1/2,,1/8,,2/1-6b[32:3]*-4b[32:3],,,,1b,
,,,1/2,,1/8,,1/2-6b[8:1]*-4b[8:1],,,,2b,,,,6x/5x,
,7/4,,8b/3b,,,,2h[8:3],,1<7[32:3],,3>1[32:3],,1,
,3,,,,2<8>2[4:1],,8,,7/2>4[8:1],,6,,5bx,,,,E6/E7,
,E2/E3,,Cf,,,,7h[8:3],,8-2[32:3],,6-8[32:3],,8,
,6b,,,,7/2V46[8:1],,1/8,,2/1-7[8:1],,,,1,,,,3/1,
,2/8,,1b/7b,,,,5/6-8b[8:1]*-2b[8:1],,4x/3x,,6b-1b[8:1]*-3b[8:1],,,,6b,
,,,6/5-2b[8:1]*-8b[8:1],,4/3,,5b-1b[8:1]*-7b[8:1],,,,5b,,,,E5/E3,
,E6/E2,,E7f/E1f,,,,7p3b[16:1]/6x-3[16:1],,,,,,,,2-7b[16:1]/3xV17[16:1],
,,,,,,,8h[4:1]/1h[4:1],{32},,,,,,,,,7x,6,5,
3x,2,{16}1bxw5b[32:3],,,,{64}1b,{32},{64}Cf,{16},,,,,,,7/3,,1<7[8:1],
,7<5[8:1],,5>3[8:1],,3b>3b[4:3],,,,A3f,,,,,,,,,,B3,
,B6,,2x,,2h[4:1],,,,6,,6-8[8:1],
,8-2[8:1],,2-4[8:1],,4bV68V24b[4:3],,,,A4f,,,,,,,,,,E6/E5,
,E1/E2,,5x,,5h[4:1],,,,1,,1-3[8:1],
,3-8-4[4:1],,,,4b-7b[8:1],,,,6h[4:3]/A4f,,,,,,,,,,E5/E4,
,E8/E1,,5x,,5h[4:1],,,,1,,1b>3b[8:1],
,3bv8q4b[4:1],,,,4b-7b[8:1],,,,6bh[4:3]/A4f,,,,,,,,,,E5/E4,
,E1f/E8f,,2x,,2h[4:1],,,,7<5[32:3],,8p4[32:3],
,7,,8<4b[16:9],,8,,Ch[8:7],,,,,,,,,,,,B7/E7/B6,
,E3f/B2/B3,,6x,,6h[4:1],,,,3-1[32:3],,4-8[32:3],
,3,,4V61b[16:9],,2,,2,,3h[4:3],,,,,,,,,,E2/B1/B2,
,E6f/B6/B5,,7x,,7h[4:1],,,,1-3b[8:1],,3-8b[8:1],
,8-4b[8:1],,4-7b[8:1],,,,,,6h[4:3]/A7f,,,,,,,,,,E7/E6,
,E2f/E3f,,,,1bx-7b[32:3]/6bxqq4b[32:3],{64},,,,,,,,,,,,,,,Cf,{16},,,8bx-6qq4b[32:3]/2bx-7b[32:3],
{4},{8}Cf,{16},5bx<6-8b[4:1]/2bx-4b[16:1],,,,5bx/2bx,,{32}D7f,A7f,
D8f,A8f,{16}4bh[4:1],,,,Cf,,,,7-5[16:1]/8-4[16:1],,4/3,,{32}7/8,B6f,{16},,,1/2,
,,,8p4b[16:1]/7<5b[16:1],,4/3,,{32}7/8,B6f,{16},,,1/2,,,,8/7,
,7/6,,6b/5bx,,,,4-6[32:3],,3-7[32:3],,4-8b[32:3],,3,
,{64}4,{32},{64}Cf,{16},3,,2>4[32:3],,1q5[32:3],,2q6b[32:3],,1,,{64}2,{32},{64}Cf,{16},,,7/8,
,8/1,,1/2,,,,8-4[32:3]/1-3[32:3],,8/7,,8-6b[32:3]/1-5b[32:3],,,,{64}8/1,
{32},{64}Cf,{16},,,8<5[32:3]/1p4[32:3],,1/2,,8q5b[32:3]/1>4b[32:3],,,,{64}8/1,{32},{64}Cf,{16},,,6x/5x,
,7/4,,8bx/3bx,,,,5h[32:7]/1<6[16:1],,,,{32}4x,3x,{8}2x,
{16},1bxh[32:7]/5bxh[32:7],,,,{32}2/6,3/7,{8}4/8,{16},5bh[32:7]/1bh[32:7],,,,{32}8x,7,{16},{32}4x,3,
2,7x,{16}6,{32},,,,,4bx/8bx/B4/B8,5bx/1bx/B5/B1,6bx/2bx/B6/B2,{8}7bx/3bx/B3f/B7f,{16},1/3,,1/3,,2x,2x,2x,
2x,1/3,,8/2,,7bx/8bx,,7b/8b,,4/2,,4/2,,3x,3x,3x,
3x,4/2,,3/1,,8bx/7bx,,8b/7b,,8/6,,8/6,,7,7,7,
7,8/6,,1/7,,2bx/1bx,,2b/1b,,5/7,,5/7,,6,6,6,
6,5bx/7bx,,6bx/8bx,,1bx/2bx,,1b/2b,,4/3,,4/3,,2,5,3,
6,4,7,5,,1b/2b,,3b/4b,,6/5,,6/5,,7,4,6,
3,5,2,4,,8b/7b,,6b/5b,,3/5,,5/3,,4,4,4,
4,5/3,,7/1,,1/2,,4/3,,6/4,,6/4,,5,5,5,
5,6bx/4bx,,8bx/2bx,,3bx/5bx,,1b/7b,,6/5,,6/5,,8bx/1bx,,8bx/1bx,
,4/3,,4/3,,8bx/1bx,,8bx/1bx,,5/6,,7/5,,3bx/2,,1bx/3,
,4/2,,4/2,,6/8b,,8/6b,,5bx/4x,,B3/E3,,5x/4bx,,B6/E7,
,4bx/3x,,C,,4x/3bx,,C,,6bx/5x,,C,,6x/5bx,,C,
,5bx/1bx/B5f/B1f,,2bx/6bx/B6f/B2f,,7bx/3bx/B7f/B3f,,,,5/4,,5bxh/E2f/B1f,,5/4,,4bxh/E8f/B8f,
,4/3,,4bxh/B1f/E1f,,4/3,,3bxh/E1f/B8f,,5/6,,6bxh/E1f/B1f,,5/6,,5bxh/E1f/B8f,
,5bx/4bx,,6bx/3bx,,7bx/2bx,,8bx/1bx,,1x-7[32:3]/6xqq4[32:3],,,,,,,,8x-6qq4[32:3]/2x-7[32:3],
,,,,,,,5x<6-8[4:1]/2x-4[16:1],,,,5x/2x,,{32}D7,A7,
D8,A8,{16}4xh[4:1],,,,Cf,,,,2h[4:1]/7-4[32:3],,8-5[32:3],,7,,8,
,6,,4/3,,1h[4:1]/7<5[32:3],,8p4[32:3],,7,,8,,6,,1/2,
,8h[4:1],,E6,,Cf,,3b,,6h[4:1]/3-8[32:3],,4-1[32:3],,3,,4,
,2,,8/7,,5h[4:1]/3>1[32:3],,4p8[32:3],,3,,4,,2,,5/6,
,4h[4:1],,E2,,E8f,,,,7b/1b-3[8:1]*-5[8:1],,5/3,,1-6[8:1]*-4[8:1],,,,1,
,,,2/8-6[8:1]*-5[8:1],,6/4,,8-3[8:1]*-2[8:1],,,,8,,,,E8/E4,
,E6/E2,,Cf,,,,4b<7[8:1]/3bq8b[8:1],,8>3b[8:1]/7q4[8:1],,4/3,,,,,,,,5b-7b[8:1],
,7-4b[8:1],,4-8b[8:1],,,,1h[4:1]/A4,,,,E7/E1,
,E6/E2,,E5/E3,,,,4/5V72[2:3],,4,,{8}B3,
{32},,,,C,,{16},,,3,,3,,{8}B2,{32},,,,C,,{16},,,E4,
,C,,E6,,,,8/3V15[2:3],,8,,{8}E1,
{32},,,,B7,,{16},,,7,,7,,{8}E8,{32},,,,B6,,{16},,,E8,
,C,,E2,,,,3/8-4-6-2[2:3],,3,,{8}B3,
{32},,,,B5,,{16},,,1,,1,,{8}B1,{32},,,,B7,,{16},,,E8,
,C,,E6,,,,6/5,,8/1,,4/3,,8/1,
,7/5,,1/2,,4/2,,7/8,,4/3,,6/5,,7/8,,{32}1bxh/3bxh,4x/2x,5x/3x,4b-1b[32:3]/6b-3[32:3],
{16},,,,,,
E
