&title=創-汝ら新世界ヘ歩む者なり
&artist=BlackY VS Yooh VS siromaru VS xi VS モリモリあつし
&first=0.018
&des=SakanA vs Fish vs FsΣaK
&lv_5=14
&des_5=SakanA vs Fish vs FsΣaK
&inote_5=
(219){4},C/B5/B4/E1,{8},,B6,{24}E3,B3,B4,
{8}E5,E8,B3/E4,E6/B5,B1/E2,E8/B7,,,,,{4}3h[4:1]/6h[8:3],
{8},,2,{24}7x,6x,5x,
{8}4x,1,6h[8:1],3h[8:1],7h[8:1],1h[8:3],,,{4}Cf,
2h[8:1]/6h[8:1],{16}2x,3,4,5,1x,2,3,4,
8x,1,2,3,7x,8,1,2,6x,7,8,1,{12}5,3,6,
4,7,5,8,{24},{8}8/4,{16}7x,6,5,4,8x,7,6,5,
1x,8,7,6,2x,1,8,7,3x,2,1,8,{12}3,3,3,
5,5,5,6/4,{24},{8}4,4/8,8,8/3,3,
3/5,5,5/1,2,3/5,6,7/1,7/1,
2/8,2/8,{16}3,7,3,7,4,6,4,6,5,5,5,5,
5h,5h,5h,5h,5x,4,3,2,5x,6,7,8,4x,3,2,1,
7x,6,5,4,1x,2,3,4,1x,8,7,6,{128}5xpp7[8:1],1xpp3[8:1],{16},,,{64},,,{48}1b/5b,
C,,,,,,,,,,,{8}2x/6x,{16}7,8,{8}7,6/1>4[8:1],,1/5qq8[8:3],
,5/2,,1x,2x,3xh[4:1],,6,
{16}4,5,3,4,{4}2qq8[8:1],{16}2/7,6,{8}5p1[6:1],,2,
3,4h[4:1],{16},,6,5,{8}7,3x,{4}8xq5[8:1]/2xp5[8:1],
8/2,{8}3/7,{16}2,1,{8}2,3/8<5[8:1],,8/3-1[12:1],
,3/7v4[8:1],,7/8,{4}1-5b[8:1],1,
{16}6,4,7,3,{8}8h[8:1],{16}2,1,2,1,{8}3h[4:1],{16},,6,5,
6,5,{8}7h[4:1],{16},,1,8,2,1,{8}3h[4:1],{24},,,5,6,7,
8,1,2,3,4,5,{8}2,2,8,8,{16}3,7,2,6,
1,5,{8}C,,7b/3b,{16},1b/5b,,,2b/7b,,,4b/5b,
,,3b/6b,2/7,{4}8/1w5b[8:1],{32}1b,B1,Cf,B6/B5/B4,,,,,{16}3,7,3,7,
2,8,2,8,{12}1bh[6:1],,2h[6:1],,3h[6:1],,7bh[6:1],,6h[6:1],
,5h[6:1],{24},,{8}4,5xh[12:1]/3xh[12:1],{24},2h[12:1]/6h[12:1],,,,1h[12:1]/7h[12:1],,,,{8}8h[4:1],
{16}E2,E3,{8}E4,{12}7,5,6,4,5,3,4bh[6:1],,2bh[6:1],
,8bh[6:1],,{4}C,{24}7x/3x,6,5,4h[24:5],,,{4}2h[6:1],
{16}4,5,6,7,{12}1,8,2,7,4,6,3xh[12:1],,5xh[12:1]/1xh[12:1],
,2xh[6:1]/6xh[6:1],{24},,,,,{8}1/7,1/7,7h[24:1]/1h[12:1],{12}8x,8x,8x,
2x,2x,2x,6x,6x,6x,{24}2x,1,8,7,6,5,{16}4/8b,,,8b,
,,{8}8bw4[8:1],{64},,,,,,,,8b,B8,B1,E2,B7/C/B3,E6,B4,B5,,,,,,,,,,,,,,,,,{8}4/6,4/6,
3h[8:1],5h[8:1],{16}E3,E2,E1,E8,E7,E6,E5,E4,D7/E3,D8,D1,D2,
D3,D4,D5,D6,{4}Ch[2:1],{16},,,,6x,7x,8x,1x,
2x,3x,4x,5x,6x/1x,8x,7x,6x,5x,4x,3x,2x,7h[8:1]/1xh[8:1],,,6h[8:1]/2h[8:1],
,,{8}3bx/5bx,{24}B4,C,B7/B1,,,,,,,2/8,{48},,,,{16}2/8,3,4,5,
6,7,8,1,2/5,4,3,2,1,8,7,6,1h[8:1]/5h[8:1],,,2h[8:1]/6h[8:1],
,,{8}3b/7b,{24},,,8,7,6,{8}5h[2:1],{24}4,3,2,{4}1h[4:1],
{8},,2/6,2/6,4/8,{24}4/8,,E7,E5,E6,E4,E3,E2,E1,
{4}B7/D8/A7/E8f,{16}5/3x,2,1,8x,4/7x,8x,1,2x,6/3x,2x,1,8x,
4/7x,8x,1x,2,6/3x,7,8,1x,5/2x,1x,8,7x,3/6x,7x,8,1x,
5/2x,1x,8,7,6/4,3,2,1,8/4,7,6,5,4/8,3,2,1,
8/4,7,6,5,4/8,1,2,3,4/8,5,6,7,8/4,1,2,3,
4/8,5,6,7,4/8q4[8:1],,,3,{8}8,2,{16}5/1,8,7,6,
8,7,6,5,1p5[8:1],,,6,{8}1,7,{16}8/4,1,2,3,
1,2,3,4,{128}5xqq3[8:1],8x<5[8:1],{16},,,{64},,,{4}5/8,{128}4xpp6[8:1],1x>4[8:1],{16},,,{64},,,{4}4/1,
5x/8xp4[8:1],4x<7[8:1]/8x>3[8:1],8xq4[8:1],
8bx,{16}5/3x,2,1,8x,4/7x,8x,1,2x,6/3x,2x,1,8x,
4/7x,8x,1x,2,6/3x,7,8,1x,5/2x,1x,8,7x,3/6x,7x,8,1x,
5/2x,1x,8,7,{8}6/4,{16}3,5,3,5,{8}2h[4:1],{16},,8,1,
7,8,{8}6h[4:1],,4,{4}5b/3bpp8[8:3],{8}8x,7x,
{4}6xh[1:1],B1/E2,B7/B6,B3/E4,
C,{8}3/7,3/7,5/1,5/1,3/6,3/6,
{32}A2,A1,A8,A7,A6,A5,A4,A3,{4}7xv4[8:1],7/1,2>5[8:1],
2/8,{8}7-3[8:1],7,8-4[8:1],8,1<6b[8:1],1,
2,2,{16}3,5,3,5,4,6,4,6,3,7,3,7,
2,6,2,6,1bx,5,1bx,5,1bx,5,1bx,5,{32}2bx,3,4,5,6,7,8,1,
A2,A3,A4,A5,A6,A7,A8,A1,{4}B2/B3/A2/D3/A3/E3f,{64}1bx-7-2-6-3-5[1:3],8bx-6-1-5-2b[1:3],{1},,,{4},{16},,,{32},{4}C,
3xh[2:3]/7xh[2:3],{1},{4},,{32}B2/B6,
C,{16}B5/E5/D5/B1/E1/D1,,,{8}3x/7x,{16}2,1,{8}2,3/8<5[8:1],,8/3qq1[8:1],
,3/4,{16},,8x,7,6,5,{8}4/2,{4}1w5[8:1],
1b,{8}3/7,{16}2,1,{8}2,8/3>8[8:1],,3/6qq1[8:3],
,6,,1x,2x,3x,{4}4h[8:1]/8h[8:1],
{16}3,7,3,7,{8}2h[8:1],{16}5,3,5,3,{8}6h[4:1],{16},,8,7,
1,8,{8}2h[4:1],{16},,5,3,6,4,7,5,{64}8q5[8:1],8?p3[8:1],,,,,,,,,,,,,,,{4}8,
{16}6,2,7,1,{8}8qq6[8:1],8,3-1[12:1],3,
7,8bx-4b[8:1],,8b,{16}3,2,{8}1q5[8:1],6<8[8:1],1,
6,3,3/7,{16}1,8,{8}2v5[8:1],2,6pp8[8:1],6,
2,1bx-5b[8:1],,1b,{24}6x,7x,8x,1x,2x,3x,{4}4bxw8b[8:1],
4,{8}2/6,{16}8,1,{8}7qq5[8:1],7,3>1[12:1],3,
7,8bx-4b[8:1],,8b,,6bh[8:1]/2bh[8:1],{24},,,3b,4,5,
6,7,8,1,2,3,{8}4/8,{16}7,5,7,5,{8}6h[8:1],{16}3,5,3,5,
{4}2bh[8:1],{8}5/1,{16}2,4,2,4,{8}3h[8:1],{16}6,4,6,4,
{4}7bh[8:1],{16}4b/8,,,7/3b,,,{8}2/6b,{16}4/8b,,,3/7b,
,,{8}2bpp4[8:1]/6v1[8:1],,2/6b,,3x/7x,3x/7x,3/7,
3/7,{24}2bx,1x,8x,7x,6x,5x,4x,3x,2x,{4}1xh[4:1]/5xpp7>1p5p1pp3<5[4:33],Cfh[2:1],
{1},,,,,,,,{4},{8}7x,
7x,{24}E2,E3,E4,E5,{48},,,,{16}8xh[8:1],,,7xh[8:1],
,,{8}6x,2x,2x,{16}E8,E7,E6,E5,1xh[8:1],,,2xh[8:1],
,,{8}3x,6,6,{24}2x,1x,8x,7x,6x,5x,{16}4x/8x,,,3/7,
,,{8}2/6,3,3,{24}7x,8x,1x,2x,3x,4x,{16}5x/1x,,,6/2,
,,{8}7/3,{4}4x/8x-4[8:1],{8}8/3,2<7[8:1],,5q1[16:3]*p1[16:3],
{16},,B5,C,{4}B1,{2}3h[4:1]/7h[4:1],
{4}2h[8:1]/8h[16:3],{12}1x,1,1,1x,1,1,1x,1,1,
1x,1,1,1x,2,3,4/1x,8,7,6/8x,1,2,
3/8x,7,6,5xh[4:15]/1xh[4:15],{1},,,{4},,,{6},{4}5xh[8:1]/1xh[8:1],
{16}2x,3,4,5,2x,3,4,5,
8x,7,6,5,8x,7,6,5,{4}4xh[4:1]/2xh[8:1],{24}1,2,3,4,5,6,
7,8,1,2,3,4,{8}5/8,8,7/4,3,3/5,6,
6/1,1,{16}7/2,6,5,4,3,2,1,8,{24}1x,2,3,4,5,6,
7,8,1,2,3,4,{4}5xh[2:3]/8xh[2:7],,,,,,,,4h[4:7],
,,,,,,,2/5,
5/7,5/1,
5/8,{8}5/3,3,3/8,3,3/4,3,
3/7,3,{4}5/3h[4:3],5,5,
5,{8}5,3,5,2,5,1,
5,8,6,6,2,2,8,8,
4,4,{16}7,3,7,3,7,3,7,3,7,3,7,3,
7,3,7,3,{4}1bw5b[8:1]*<1[16:29]`1?>1pp8[1:3],{24},Cf/B1/B5,{1},,,{16},,{24},{4}3x/7x,
1x/5x,8/4h[4:1],{8}E5,6h[4:1],,E6,
{4}4h[4:1],{8}E5,6bh,,,,,,,{4}3b/5bh[4:1],
{8}E5,3h[4:1],,E4,
{4}5h[4:1],{8}E5,3bh,,C,,,,,{4}6/4h[4:1],
{8}E5,6h[4:1],,E6,
{4}4h[4:1],{8}E5,6bh,,,{4}C,
,3b/5bh[4:1],{8}E5,3h[4:1],,E4,
{4}5h[4:1],{8}E5,3b,{4}6/2,4/5,
3/7,{8}4/5,4/5,4/5,4/5,{4}4h[4:1]/5h[4:1],
{32}B5/B4,C,{16}E1,,,{8}3/7,{16}2,1,{8}2,3/8<5[8:1],,8/4pp1[8:3],
,4,,8x,7x,6xh[4:1],,2,
{4}2/6,{8}3,{16}5,4,6,5,{8}7pp1[8:1],,7/3,
4,5>2[8:1],{16},,1,8,7,6,{8}5x/1x,{4}7xqq5[8:1]/3xv8[8:1],
3b/7b,{8}6/2,{16}7,8,{8}7,6/1>4[8:1],,1/6-8[12:1],
,6/2-4[12:1],,2/1,8qq6[8:1],8,3,3,
{24}2,1,8,7,6,5,{8}4/8,{16}7,3,7,3,{8}7h[8:1],{16},,6,4,
6,4,{8}6h[8:1],{32},,,,E4/D4,A3,E3/D3,A2,E2/D2,A1,D1/E1,A8,{96},,,,,,,,,,,,{12}5,5,5,
3,3,3,1h[24:5],{24},,,,5x/8x,4x/7x,3x/6x,2x/5x,1x/4x,8x/3x,{16}2x,1x,8x,7x,
6x,5x,{8}4xh[8:1]/2h[8:1],{24},,,1,2,3,{8}5h[8:1],{24}1,8,7,{8}5h[8:1],{24}1,2,3,
{4}8h[8:1],{16}3,6,5,6,2,5,4,5,1,4,3,4,
2,5,{8}1h[4:1],{48},,,,,,D1,A8,D8,A7,D7,A6,{8}2x,2x,3b/7b,4b/5b,
2b/6b,4b/5b,{4}3h[4:1],{16}6,5x,2,6,5x,1,6,5x,
8,6x,{8}8bx-4b[8:1],,8b/4,5,6,7,7h[4:1],
{32}4,5,{16}6,{32}8,1,2,3,{16}4/8h[8:1],,,6h[8:1],,,{8}5,{16}5h[16:3]/1h[8:1],,,3h[8:1],
,,{8}4,{16}2b,6,2,6,4b,5,4,5,3b,7,3,7,
4b,5,4,5h[16:3],,,{8}3bqq1[8:1],,3/4b<7b[8:1],,4b,
,2/8,{16}1,1,1,1,1,1,1h,1h,1h,1h,1h,1h,
{4}1h[4:1],C,{12}6,4,5,3h[4:1],,,6,
5,7,7,,,6,4,5,{48}3,,,2,,,{16}1,8,
7,6,5,4,(197){8}3/7,{16}8,2,7,3,6,4h[16:3],,,5,6,
7,8,{8}1/3h[4:1],{16},,7,2,7,2,6x,5,4,3,2,1,
(169){8}5/8,{16}4,7,3,6,2,5,{8}1h[8:1],{16}7,3,6,2,5,1,
{8}4x,4x,{16}3x,2,1,8,(179){24}5x,4,3,2,1,8,{4}4xh[8:1]/7xh[8:1],
{8}2/6,{24}3x,4x,5x,{32}7x,8x,1x,2x,3x,4x,{16}5x,{8}2/6x,{24}3x,4x,5x,7x,8x,1x,2x,3x,4x,
(240){4}1x/5xh[4:1],{24}8,1,2,3,,,{8}6,6,{24}1,2,3,4,,,{8}7,
7,{24}2,3,4,5,,,{8}8,8,{24}3,4,5,6,7,8,
(250){6}1/5b,{12}2,4,3,5,{6}4bh[6:1],{12}7,5,6,4,
{6}5bh[6:1],{12}3,4,2,5,{32}1b,8,7,6,5,4,3,2,1,8,7,6,5,4,3,2,
(260){4}1w5[16:3],{24}B1f,C,B6/B4,B5,E6/E5,A6`A5`A4,{4},,(255){16}3,
7,3,7,2,6,2,6,1,5,1,5,8,4,8,4,
7,3,7,3,7,3,7,3,{24}8/4,5/1,2/6,3/7,4/8,5/1,{4}6/2,
{6}4h[24:1]/8h[12:1],3h[12:1]/7h[24:1],6h[12:1]/2h[24:1],3h[12:1]/7h[24:1],4h[24:1]/8h[12:1],1<6[0.3569##0.1]/5qq3[0.3569##0.1],
(300){4},1/5bp1p5[2:1],
E
