&title=Forbidden Pizza!
&artist=Camellia & Nanahira
&first=1.01
&des=Purritty
&lv_5=14
&inote_5=(134)
{8}
,,,,
E8/B7/B6/E6/A8/A5/C/D1/A1/E2/B2,,,,,,E8/B7/B6/E6/A8/A5/C/D1/A1/E2/B2,,,,,
8,8>1-4[8:1]*<7-4[8:1],8,8,,
4h[4:1]/5,,B3,,5h[4:1]/4,,B6,,,
{6}
2>5[6:1],5<8[6:1],8>3[6:1],
{8}
,,,5h[4:1]/4,,B8,,4h[4:1]/5,,B1,,,
{6}
7<4[6:1],4>1[6:1],1<6[6:1],
{8}
,,,4h[4:1]/5,,C,,5h[4:1]/4,,C,,,
{6}
1>3[6:1],3-6[6:1],6-1[6:1],
{8}
,,,3,3,6,6,3/5,4,6/4,5,3,,2v3[10:1],,2/7v6[10:1],,7/2,,
{16}
1x>2-5[8:1]*<8-5[8:1],7,3,7,1x,,,,3,4,3,4,2,4,3,4,2,4,1,4,,,5,,6/3,,2/7,,1/8,,,,
1>5[8:1]*<5[8:1],,3/7,,1,,,,6,5,6,5,7,5,6,5,7,5,8,5,,,4,,3/6,,7/2,,1/8,,,,
3x-8[10:1],6,5,6,3x,,,,
6x-1[10:1],3,4,3,6x,,,,
2,5,4,5,1,5,4,5,8,5,4,5,7,,,,
8-4[8:1]/7,,4qq3-5[4:1]/5,,8/7,,,,6,,7,,8,,,,
1-5[8:1]/2,,5pp6-4[4:1]/4,,1/2,,,,3,,2,,1,,,,
{8}
1-6[4:1],,2,,3-8[4:1],,4,,5-2[4:1],,6,,7-4[4:1],,8,,
1-4[8:1]/8,,1/8,,1/8-5[8:1],,1/8,
{16}
,,5bx/6bx,3bx/8bx,,,5bx/4bx,2bx/7bx,,,3bx/4bx,1bx/6bx,,,,,,,
{8}
8-3[4:1],,7,,6-1[4:1],,5,,4-7[4:1],,3,,2-5[4:1],,1,,
5<8[8:1]/4,,5/4,,5/4>1[8:1],,5/4,,
1/8,2/7,3/6,4/5,4h[4:1]/5h[4:1],,,,
3>6[4:14],,,,,,,,,,,,,,,,,,4,4,3,3,4,4,3,3,4,4,
{16}
3,,,3h[16:3],,,,,
{8}
6<3[4:6],,B3,,,,B1,,,,B8,,,,B6,,
E7/B7/B6/B3/B2/E3,,,,,,E1/B1/B8/E5/B4/B5,,,,,1/5,1v4[10:1]/5v8[10:1],1/5,1/5,
,E1/B1/B8/E5/B4/B5,,,,,,E7/B7/B6/B3/B2/E3,,,,,7/3,7v6[10:1]/3v2[10:1],7/3,Cf,,
{16}
4,6,4,6,4,6,,2pp4[10:1]/7qq5[10:1],,3/6,,2/7,,,3,3,7,,6,6,2,,3,3,8,,6,6,
{32}
1,2,3,4,5/8,7,6,5,
{16}
4/2,,5,3,5,3,,3qq1[10:1]/6pp8[10:1],,2/7,,3/6,,,2/7,,1-4[12:1],1,,6-3[12:1],6,,2-6[12:1],2,,8<1[0.325##0.45],8,,
{32}
8bx,E8,E7,E6,E5,E4,E3,E2,1x>3[10:1],,
{16}
,,,1,5,4,5,3,5,4,5,3,5,4,,4-1[10:1]/5-8[10:1],,6/3,,4/5,,,,1-5[10:1]/8-4[10:1],,2/7,,1/8,,,,3,5,4,6,4,5,3,5,4,6,4,5,3,5,5,
B4/B3/E4,,B1/B2/E2,,B8/B7/E8,,E6/B6/B5,,Chf[16:9],,,B2/E2,,,B7/E8,,,
{32}
7bx,6,
{16}
5x,5,5,5,5,5,5,5,5,5,5,5x,5,,,
{32}
2bx,3,
{16}
4x,4,4,4,4,,
{32}
7,6,5,4,3,2,1,8,7/2,3,4w8[10:1],5,6,7,8,1,2,3,4bx,,,,,,,,
{16}
8,8,8,8,8,8,8,8,8,8,,,
{32}
3bx,2,
{16}
1x,1,1,1,1,1,1,1>2-5[8:1]*<8-5[8:1],,,,1,,,,
{4}
B3,,B2,,
{8}
B1,
{6}
5<7[6:1],7>1[6:1],1>3[6:1],
{8}
,,,
{4}
B6,,B7,,
{8}
B8,
{6}
3>1[6:1],1<7[6:1],7<5[6:1],
{8}
,,,
5h[4:1]/4,,C,,4h[4:1]/5,,C,,,
{6}
8<6[6:1],6-3[6:1],3-8[6:1],
{8}
,,,3,3,6,6,2,2,7,7,
1,,1,,1,2,3,4,
{16}
5,6,7,8,1,2,3,4,
{32}
5,6,7,8,1,2,3,4,5,6,7,8,1,2,3,4,7bx,6,5,4,3,2,1,8,7,6,5,4,3,2,1,8,7,6,5,4,3,2,1,8,7/Ch[8:1],,,,
{8}
,B2/B3/E3/B7/B6/E7,,,,,,E1/B1/B8/E5/B4/B5,,,,,8/4,8v5[10:1]/4v1[10:1],8/4,8/4,,
E1/B1/B8/E5/B4/B5,,,,,,B2/B3/E3/B7/B6/E7,,,,,3/7,3v2[10:1]/7v6[10:1],3/7,3<5[10:1]/7>1[10:1],,3b/7b,,
{16}
5,1,5,1,4,8,4,8,3,7,3,7,
2-5[8:1],5,2,5>1[16:5],2,,,,7,,6,,5,,,,
1,5,4,5,2,5,4,5,3,5,4,5,4,5,4,,
{32}
8x/7x,,8bx/7bx,6,5,,1x/8x,,1bx/8bx,2,3,,1x/8x,,1bx/8bx,7,6,,1x/2x,,1bx/2bx,3,4,,7b,6,5,4,3,2,1,8,7-5[10:1]/3-5[10:1],,,,2/8,,,,3/7,,,,,,,,
2-4[10:1]/6-4[10:1],,,,1/7,,,,2/6,,,,,,,,
{16}
3,4,2,1,4,5,1,8,5,6,8,7,
{32}
1,2,3,4,5/8,7,6,5,
{16}
4/1,,,,1,4,1,4,2,5,2,5,3,6,3,6,
4-1[8:1]/5,,1-3-5[8:1]/8,,4,8x,7x,6x,,,
B1/B2/E2,,,B5/B6/E6,,,2v4[10:1]/6v8[10:1],,,,2/6,,,,4x/5,3,2,1,8/7x,6,5,4,3/8x,1,2,3,4/5x,6,7,8,1/3,,8/4,,7<5[10:1]/5>3[10:1],,,,7/5,,,,3-1[10:1]/6,,4,,3/6,,5,,
B2/E3,B4/E4,,B1/B8/E1,,E6/B5/B6,,B2/B3/E3,,B7/B6/E7,,B5/B4/E5,,,Chf[16:3],,,,,,
3-8>2[8:1],,,3,4x,,4x,,4-1>3[8:1],,,4,5x,,5x,,5-2>4[8:1],,,5,6x,,6x,,
{32}
B2,B1,B8,B7,B6,B5,B4,B3,Chf[4:1],,,,,,,,
{16}
6-1<7[8:1],,,6,5x,,5x,,5-8<6[8:1],,,5,4x,,4x,,4-7<5[8:1],,,4,3x,,3x,,1/8,,2/7,,3<6[10:1]/6>3[10:1],,,,3b/6b,,,,1>4[10:1]/8<5[10:1],,,,1b-5[4:1]/8,,,,5b<8[4:1],,,,8b-4[4:1],,,,4b>1[4:1],,,,1b-4[6:1]*-6[6:1],,,,,,,,
B2/B3/E3/B7/B6/E7,,,,,,,,,,,,E1/B1/B8/E5/B4/B5,,,,,,,,,,
8,,8>1-4[10:1]*<7-4[10:1],,8,,8b/B1/B7/Cf,,,,,
