&title=I Wanna
&artist=静香(CV.長谷川育美)
&first=0
&des=Tina-II
&lv_5=14+
&inote_5=(200){1},
{16}3,,4,,5,,4,,5,,E4,,5,,E3,,
{16}6,,E2,,7,,E1,,7,,B2/B3,,B2/B3,,,,
{16}6,,5,,4,,5,,4,,E6,,4,,E7,,
{16}3,,E8,,2,,E1,,2,,B3,B4,B5,,,,
{16}8h[4:7],,2,,2,,1,,1h[8:1],,,,,,E2,,
{16},,E3,,,,E4,,,,4,,4,,,,
{16}25,,3,4,3,,5,,46,,2pp5q1b[8:7],,8,,7h[8:7]/2,,
{16},,,,,,,,,,,,,,,,
{24}8x-4-1[4:1],7,6,5h[8:2],,,{16}8,,,,6,,E3,7,,E4,8-4[8:1],,
{16},,82,,1,,5,,2>5[8:1]/6<1[8:1],,,,26,,,,
{24}8x-4-1[4:1],7,6,5h[8:2],,,{16}8,,,,6,,E3,7,,E4,8-4[8:1],,
{16},,82,,1,,7,,2,5,2,6,1,7,1,8,
{24}1x-5-8[4:1],2,3,4h[8:2],,,{16}1,,,,3,,E7,2,,E6,1-5[8:1],,
{16},,17,,8,,4,,7<4[8:1]/3>8[8:1],,,,73,,,,
{24}1x-5-8[4:1],2,3,4h[8:2],,,{16}1,,,,3,,E7,2,,E6,1-5[8:1],,
{16},,17,,7,,7,,4,3,2,1,5,4,3,2,
{16}1>8[4:6],,,,,,,,,,,,1xh[4:4],,,,
{16},,,,,,,,,,,,,,,,
{16}8<1[4:6],,,,,,,,,,,,8xh[4:4],,,,
{16},,,,,,,,,,,,,,,,
{16}6,,6,,4qq3b[4:1],,,,5h[4:1],,,,,,,,
{16}6,,3,,5pp6b[4:1],,,,4,,,,3qq7[4:6],,3,,
{16},,,,,,,,,,,,5,,5h[8:5],,
{16},,,,,,,,,,,,,,,,
{16}6-1[8:1],,6,,4,,4,,{16}3-8[8:1],,3,,5,,5,,
{16}6-3[8:1],,6,,2,,,,1-5[8:1],,8,,71,,,,
{16}7-4[8:1],,7,,1,,1,,{16}2-5[8:1],,2,,8,,8,,
{16}7-2[8:1],,7,,3,,,,4-8[8:1],,5,,64,,,,
{16}6h[4:1],,,,4,,3,,2/5h[4:1],,,,1,,2,,
{16}4h[4:1]/8,,,,1,,2,,3h[4:1]/6,,,,5,,5,,
{16}1,,46,,8,,35,,2,,1>3v5<7b[8:7],,8,,8h[8:7],,
{16},,,,,,,,,,,,,,,,
{16}1/7<5[12:1],,1,2,3,,3,,4/6<8[12:1],,4,3,2,,2,,
{16}1/7v4[8:1],,1,2,3,,3,,2,1,8,7,2,1,8,7,
{16}3,,5,,{24}3x,E3,E2,E1,E8,,{16}6,,4,,{24}6x,A7,A8,A1,A2,,
{16}4,5,4,5,3,6,2,7,1-5[8:1],,28,,1,,,,
{16}3/6<8[12:1],,4,3,2,,2,,1/7<5[12:1],,1,2,3,,3,,
{16}4/6v1[8:1],,4,3,2,,2,,{24}3,4,5,6,7,8,1,2,3,{16}4/8-4b[8:1],,
{16},,3,,2,,2,,7<4[8:1],,1pp4b[8:5],,7,,1,,
{16},,E6,,,E7,,,8bxp4[8:1],,,,,,,,
{16}2h[4:1],,,,,,{24}8x,7x,6x,{16}5xh[4:1],,,,{24}8x,1x,2x,{16}3xh[4:1],,
{16}7h[4:1],,,,,,{24}4x,3x,2x,{16}1xh[4:1],,,,{24}4x,5x,6x,{16}7xh[4:1],,
{16}5h[4:3],,,,,,{24}E1,B8,B7,{16}E7,,,,{24}E2,B2,B3,{16}E4,,
{16}8b-4[8:1],,,,8b>3[8:1]*<5[8:1],,,,8bw4b[8:1],,,,8b,,,,
{16}2qq7[4:3],,,,3,,,,4,,,,5,,,,
{16}6>3[8:3],,,,7,,,,8,,,,1,,,,
{16}2,1,2,1,{32}2x,E3,B3,B4,{16}E5,,{16}7,8,7,8,{32}7x,E7,B6,B5,{16}E5,,
{16}1,2,3,4,8,7,6,5,3,4,3,4,2,5,1,5,
{16}1x,8,7,6,5/1h,4,3,2,{32}7b,6,5,4,,,8b,7,6,5,,,1h,,,,
{16}1x,2,3,4,5/1h,6,7,8,{32}2b,3,4,5,,,1b,2,3,4,,,8h,,,,
{16}5,,3,4,1,,6,5,8,,3,6,2,7,1,8,
{24}2b,3,4,5,6,7,1b,2,3,4,5,6,{32}8b-4[8:1],1,2,3,4,5,6,7,{16}8,,,,
{16}2x,1,2,1,3,8,3,8,4,7,3,6,2,5,1,8,
{16}2,1,3,8,4,7,5,6,8,7,1,6,2,5,3,4,
{16}2x,,2xh[4:1],,{32}1b,8,7,6,5,,,,{16}1x,,1xh[4:1],,{32}2b,3,4,5,6,,,,
{16}8x,1,7,2,6,3,5,4,5,4,6,3,7,2,8,1,
{16}27,,3,4,2,,6,5,7,,3,4,1,,6,5,
{16}4pp2[4:2]/7qq1b[4:2],,,,,,,,,,,,,,,,
{16}7x<8b[8:13],,,,,,8,,8h[4:1],,,,,,,,
{16}8,,,,8,,,,{32}E8,E7,E6,E5,E4,E3,E2,E1,{16},,,,
{16}8x<1b[8:13],,,,,,2,,2h[4:1],,,,,,,,
{16}1,,,,1,,,,{32}E1,E8,E7,E6,E5,E4,E3,E2,{16},,,,
{16}1x>8b[8:13],,,,,,7,,7h[4:1],,,,,,,,
{16}8,,,,8,,,,{32}E1,E2,E3,E4,E5,E6,E7,E8,{16},,,,
{16}2x>1b[8:13],,,,,,1,,1h[4:1],,,,,,,,
{16}1,,,,1,,,,{32}E2,E3,E4,E5,E6,E7,E8,E1,{16},,,,
{16}5xh[8:13],,,,4,,4,,3,,,,3,,3,,
{16}2,,2,,,,1-5[8:1],,,,1,,,,6,,
{16}4xh[8:13],,,,5,,5,,6,,,,6,,6,,
{16}7,,7,,,,8-3[8:1],,,,8,,,,4,,
{16}5h[4:1],,,,6,,6h[4:1],,,,7,,7h[4:1],,,,
{16}8,,8h[4:1],,,,1,,1-5[8:1],,,,1,,,,
{16}4h[4:1],,,,3,,3h[4:1],,,,2,,2,,1,,
{16}1h[4:1],,,,8h[4:1],,,,D8,D7,D6,D5,D4,D3,D2,D1,
{16}5,,4,,46,,4,,37,,3,,37,,3,,
{16}E8,,2,,E7,,2-4-8[4:1],,E6,,2,,,,6,,
{16}5,,5,,53,,5,,62,,6,,62,,6,,
{16}E2,,7,,E3,,6,,4,3,2,1,4,3,2,1,
{16}4,,4,,35,,26,,8,,5,,64,,73,,
{16}1,,53,,62,,71,,28,,37,,46,,18,,
{16}25,,18,,47,,18,,36,,18,,45,,27,,
{16}4,5,3,6,2,7,1,8,{24}2,3,4,5,6,7,2,3,4,5,6,7,
{160}4v3>2v1<8[4:14],8v7<6v5>4b[4:14],,,,,,,,,{16},,,,,,,,,,,,,,,
{16},,,,,,,,,,,,,,,,
{16},,,,,,,,,,,,,,,,
{16},,,,,,,,,,,,,,,,
{16}7xh[4:2],,2,,2,,1,,1,,1,,8,,E2,,
{16}7,,E3,,6,,E4,,6,,E6/B5,,E4/B4,,,,
{16}27,,3,4,1,,6,5,8,,1pp4q1b[8:7],,7,,6h[8:7]/1,,
{16},,,,,,,,,,,,,,,,
{16}8h[4:2],,,,,,,,C,,,,,,,,
{16}1h[4:2],,,,,,,,2h[4:2],,,,,,,,
{16}3h[4:2],,,,,,,,4h[4:1],,,,,,,,
{16}1b-5[8:1],,,,1b<6[8:1]*>4[8:1],,,,1bw5b[8:1],,,,1b,,,,
{16}7qq1b[4:2],,,,4x,,,,D4,D3,D2,D1,,,,,
{16}7q1b[4:2],,,,5x,,,,D5,D4,D3,D2,,,,,
{16}Ch[4:2],,,,,,,,,,,,,,,,
{16}4,5,3,6,2,7,1,8,2,3,4,5,8,7,6,5,
{16}2,1,3,8,4,7,5,6,3,4,2,6,5,7,1,8,
{16}3,4,2,5,1,6,8,7,2,1,3,7,8,6,4,5,
{16}2,4,3,5,4,6,1,8,3,5,4,6,5,7,1,8,
{24}2b,3,4,{16}7,7,{24}2b,3,4,{16}6,6,{24}1b,2,3,{16}5,5,{24}8b,1,2,{16},,
{16}6,4,6,4,5,3,5,3,8,2,7,3,6,2,5,3,
{16}6,7,8,1,5,6,7,8,4,5,6,7,3,4,5,6,
{16}8x,,8xh[4:1],,{32}7b,6,5,4,3,2,,,{16}1x,,1xh[4:1],,{32}2b,3,4,5,6,7,,,
{16}2,6,1,5,8,4,7,3,48,15,26,37,48,1,2,3,
{16}48,,1,2,37,,8,7,26,,2,3,48,,7,6,
{16}1b>8b[4:6]/5b,,,,,,,,,,,,,,,,
{16}1x>4[4:2],,,,,,,,,,,,,,,,
{16}2,5,4,5,3,5,4,5,3v8[8:1],6,3,6,3,,,,
{16}7v4[8:1],,,1,7,,2,,2>5[8:1],,,1,2,,8w4[8:1],,
{16},,8,,,,26,,{16}1,7,2,8,3,7,4,6,
{16}3v8[8:1],,,5,3,,6,,7v4[8:1],,,1,7,,2-6[8:1]*-5[8:1],,
{16},,2,,,,7,,{24}1,2,3,7,6,5,2,3,4,8,7,6,
{16}2v5[8:1],,,8,2,,7,,7<4[8:1],,,8,7,,1w5[8:1],,
{16},,1,,,,73,,{16}8,2,7,1,6,2,5,3,
{16}6-1[8:1],,6,,5-2[8:1],,5,,7-4[8:1],,7,,8-3[8:1]/7,,8,,
{16}8/5-1[8:1],,5,,52,,2,,{24}2,3,4,8,7,6,1v3v5v7v1b[4:28],2,3,7,6,5,
{16}2xh[4:4],,,,,,,,,,,,,,,,
{16},,,,,,,,,,,,,,,,
{16}4xh[4:4],,,,,,,,,,,,,,,,
{16},,,,,,,,,,,,,,,,
{16}6x,,,,,,,,,,,,,,,,
{16}7xv1[4:7],,,,,,,,,,,,,,,,
{16}8x,,,,,,,,,,,,,,,,
{16}C,,,,,,,,,,,,,,,,
E
