&title=ふせっしょー
&artist=晴いちばん/初音ミク
&first=0
&des=Sigrika
&lv_5=13
&inote_5=(110){1},
{12}6h[8:1],,,4h[8:1],,,{24}3x/5x,,5,4,,,7x/1x^4[12:1],,1,8,,,
{24}1b/7b,,,5h[8:1],,,3,,,3,,5,4,,,6h[12:1],,4,,,4,5,,5,
{24}3^1[8:1],,,4,,,5pp5[4:1],,,4,,,3h[8:1],,,,,,B2,,,B8,,,
{24}4x/6x,,7,5,,6,4,,5,3,,4,2q8[8:1],,,5h[8:1],,,2,,,,,7,
{24}1,,1,8,,8,2pp5[4:1],,,7,,,2/5<4b[4:1],,,,,,E1,,,,,,
{24}5b,,,4h[8:1],,,6,,,6,,4,5,,,3h[12:1],,5,,,5,4,,4,
{24}6^8[8:1],,,5,,,4qq5[4:1],,,5,,,6h[8:1],,,,,,B7,,,B1,,,
{24}5x/3x,,2,4,,3,5,,4,6,,5,7p1[8:1],,,4h[8:1],,,7,,,,,2,
{24}8,,8,1,,1,7p5[4:1],,,2,,,3/7,,,,,,4x,,,C,,,
{24}4b/6b<2b[4:1],,,,,,2<6[4:1],,,,,,3,,,4,,4,,,3,,,6h[8:1],
{24},,4,5,,,5pp1[3:1],,,3h[8:1],,,5,,,E4,,,E3,,,2,,,
{24}7^5[8:1],,,,,1,7x,,,3,,,4-8[8:1],,,E6,,,E7,,,7,,,
{24}2^4[8:1],,,,,8,2x,,,6h[8:1],,,5h[8:1],,,E4,E3,E2,E1,E8,E7,E6,,,
{24}4b/3b>7[4:1],,,,,,7>3b[4:1],,,,,,6,,,5,,5,,,6,,,3h[8:1],
{24},,5,4,,,3qq8[3:1],,,5h[8:1],,,3,,,B5,,,E7,,,5,,,
{8}4-2[8:1],4,5-7[8:1],5,4-1[8:1],4,6,5,
{24}3hx[8:1]/4,,,4,,,6hx[8:1]/5,,,B5,C,B1,1hx[8:1],,,7,,2,8x-5[8:1],,,,,,
{24}2b/8b-3[8:1],,,1,,,6x/8x,,,7,,,8h[8:1]/2,,,1,,8,2,,2,7,,7,
{24}1>5[4:1],,,7,,,5p1[4:1],,,7,,,8x,,,7x,,,8x,,,7,,,
{24}7^4[8:1]/1,,,8,,1,7x,,,8,,,7^4[8:1]/1,,,8,,1,7x,,,8,,,
{8}1/7h[8:1],5h[8:1],4h[8:1],2h[8:1],6h[4:1],{24}3,,,1x-4[8:1],,,2,,,
{24}7b/1b-6[8:1],,,8,,,3/1,,,2,,,1h[8:1]/7,,,8,,1,7^5[12:1],,7,8,,,
{24}1b/7b,,,2,,1,8<5[12:1],,,1,,,2b/8b,,,4,,,1<5v8[2:1],,1,2,,,
{24}1b/3b,,,,,4,,,,3,,3h[6:1],,,,6,,,2/8,,,4,,,
{24}5x/3x,,4,6,,,1x/7x,,8,2,,,{8}6bx/B1/B2/E2,4bx/B8/B7/E8,5bx/Cf,,
{24}4h[8:1]/3x,,,3,,2x/5x,,,,5h[8:1]/6x,,,6,,7x/4x,,,,Chf[4:1]/4h[4:1],,,,,,
{24},,,2h[24:5],,,,,E6/B5,,,3h[8:1],,,E8/B8,,,4h[8:1],,,E7,B6,,B3,
{24}E3,,5h[8:1],,,{48}B8,B1,B2,,{24},B5,E6,,B3,E3,,6h[8:1],,,B1/E2,,,7h[6:1],,,,
{24}3,,,E8/B8,,,4h[12:1],,E6,B5,,3h[8:1],,,B8,B7,,B1,B2,,6h[8:1],,,B4,
{24}E4,,,E6,E7,E8,8hx[12:1],,E3,E4,,B1,C,,,4hx[8:1]/5hx[8:1],,,,,,,,,
{2}1bx/8bx,{24},,,,,4,5,,5,4,,4,
{24}6b^8[8:1],,,5,,,4qq4[4:1],,,5,,,6h[8:1],,,,,,B7,,,B1,,,
{24}5x/3x,,2,4,,4,6,,6,8,,8,2q8[8:1],,,1h[8:1],,,2,,,,,7,
{24}1,,1,8,,8,2pp5[4:1],,,7,,,2/5<4b[4:1],,,,,,E1,,,,,,
{24}5b,,,5h[8:1],,,3,,,3,,5,4,,,6h[12:1],,4,,,4,5,,5,
{24}3^1[8:1],,,4,,,5-7-4-8[8:3],,,4,,,3h[8:1],,,,,,E3,,,E2,,,
{24}4x/6x,,7,5,,5,3,,3,1,,1,7p1[8:1],,,8h[8:1],,,7,,,,,2,
{24}8,,8,1,,1,7p5[4:1],,,2,,,3/7,,,,,,4,,,4,,,
{8}5b/4>6[2:1],,C,,,,C,5,
{8}4b/5<3[2:1],,C,,,,C,4,
{8}5b/4^2[8:1],4,5,5,6/4-2[8:1],4,6,6,
{8}7/4-1[8:1],4,7,7,6/4-8[8:1],4,6,,
{1}3bq1b[2:1]/7bq5[2:1],
{4}6h[2:1],B6,4h[2:1],E4/E5,2h[2:1],B2,8h[2:1],E1/E8,
{4}6h[2:1],E6/E7,4h[4:1],{24}E6,E7,E8,E4,E3,E2,
{12}8x<4[4:1],,4,4>8[4:1],,8,8,,,C,,,
{12}1x-3-5[4:1],,5,5-7-1[4:1],,1,1,,,C,,,
{12}8xp4[4:1],,4,4p8[4:1],,8,8-6-4[4:1],,,4-2-8[4:1],,,8<4[4:1],,,4>8[4:1],,,8,,,4,,,
{2}8h[4:1]/1xq2[2:1],C,
{2}4h[4:1]/5xq6[2:1],C,
{24}3h[4:1]/5x,,,,,,4,,,5,,,6h[4:1]/4x,,,4,,,5,,,5x,4x,3x,
{24}2x,,2,1,,1,8,,8,7,,7,E2,E3,E4,E8,E7,E6,D2,D3,D4,D8,D7,D6,
{24}3x,,2x/5x,,,4,3,,,7x/8x,,1x/6x,,,8,7,,,8x/1x,,,,,,
{24}2b/7b,,,,,,,,,,,,,,,,,2,8,,8,1,,1,
{24}8b<4[4:1],,,2,,,4q8[4:1],,,2,,,1x,,,2x,,,1x,,,2,,,
{24}2^5[8:1]/8,,,1,,8,2x,,,1,,,2^5[8:1]/8,,,1,,8,2x,,,1,,,
{8}8/2h[8:1],4h[8:1],5h[8:1],7h[8:1],3h[4:1],{24}6,,,8x-5[8:1],,,7,,,
{24}2b/8b-3[8:1],,,1,,,6/8,,,7,,,8h[8:1]/2,,,1,,8,2^4[12:1],,2,1,,,
{24}8b/2b,,,7,,8,1>4[12:1],,,8,,,7b/1b,,,5,,,8>4v1[2:1],,8,7,,,
{24}8b/6b,,,,,5,,,,6,,6h[6:1],,,,3,,,7/1,,,5,,,
{24}4x/6x,,5,3,,,8x/2x,,,1,,,{8}3x/7x,4x/8x,5hx[8:1]/1-5x[8:1],,
{24}1b/7b-3[8:1],,,8,,,1/7,,,8,,,1/4-2[12:1],,,3,,5,4,,,6,,,
{24}7<3[4:1]/1,,,2,,,3-5-7[4:1],,,2,,,B8,,,C,,,B2,,,1,,,
{24}1^4[8:1]/5,,,7,,5,1x,,,7,,,1^6[8:1]/5,,,3,,5,1x,,,3,,,
{8}1h[8:1]/5,3h[8:1],5h[8:1],7h[8:1],2h[4:1],6,8x-4[8:1],1,
{24}8b/2b-6[8:1],,,1,,,8/2,,,1,,,8/5-7[12:1],,,6,,4,5-3b[12:1],,,4,,,
{24}5b/6b,,,6,,4,5-2b[12:1],,,6,,,5b/7b,,,6,,,5-1^7-3b[8:5],,4,6,,,
{24}5bx/8bx,,,,,6,,,,5,,5h[6:1],,,,,,,2/8,,,6,,,
{24}5x/3x,,4,6,,,1x/7x,,8,2,,,{8}6bx/B1/B2/E2,4bx/B8/B7/E8,5bx/Cf,,
{24}1x-4[12:1],,1x,8x,,8x,1bx,,,6,,,2h[8:1],,,4,,,3^1[12:1],,3,4,,4,
{24}3b,,,5,,5,3^8[12:1],,,5,,,3b,,,6,,,3>7v2[8:5],,4,5,,,
{8}3b/6b,6,5,5,4,4,5,5,
{8}6h[8:1],4,3h[8:1],5,7x/B4/B3/E4,1x/B5/B6/E6,8x/C,,
{24}1h[8:1]/2bx,,,2,,3x/8x,,,,8h[8:1]/7bx,,,7,,6x/1x,,,8bhx[4:1]
,1bhx[24:5],,,,,,
