&title=relations
&artist=星井美希 & 如月千早
&first=1.33
&des=Hisui
&des_5=Hisui
&seek=0.00
&wholebpm=142
&demo_seek=75.1
&demo_len=13.5
&lv_1=音
&lv_5=13
&inote_1=(142)
{4}
1,1,1,1,1,1,1,1,
1,1,1,1,1,1,1,1,
1,1,1,1,1,1,1,1,
1,1,1,1,1,1,1,1,
1b,E,
&inote_5=(142)
{8}
1-6[8:1],,7-4[8:1],,3h[4:1],,4,2^7[4:1]/5,
,7^4[4:1],,4^1[4:1],,6,6h[4:1],,
8-3[8:1],,5-2[8:1],,4-7[8:1],,6,6^3[8:1],
,6p2[8:1],,6v1[8:1],,2,2,,
8-3[8:1],,2-5[8:1],,6h[4:1],,5,4/7^2[4:1],
,2^5[4:1],,5^8[4:1],,3,3h[4:1],,
1-6[8:1],,8-3[8:1],,6h[4:1],,3,4v7[8:1]/5,
,3/4,,4/5v2[8:1],,5/6,6<3[4:1],,
3>4[4:3],,,3h[4:3],,,,,
{16}
,,4,3,5,2,6,1,7bw3[8:1],,7,,,,,,
{8}
1^4[8:3]*^4[8:3],,6,6,6,6,4/7,5,
3,3,2/5,4,3,3,2/5,6,
7-5[8:1]*-5[8:1],7,4,3,2-4[8:1]*-4[8:1],1,2/5,6,
{16}
7-4[8:1]*-4[8:1],,6,5,7,,,,2-5[8:1]*-5[8:1],,3,4,2,,6,,
{8}
6,6,4/7,5,6,6,4/7,3,
{16}
2-5[8:1]*-5[8:1],5,2,5,2,,6,4,7,,3-8[8:1]*-8[8:1],8,3,8,3,,
{8}
6pp1[8:3]*pp1[8:3],6,5,4,4,3,2,2/8,
{16}
1,,1/7,,6,5/6,,4/6,,3/5,,3/4,3,,2,,
1-4[8:1],,6,6,1,,7,,8,,4^1[8:1],7,4,7,4,,
6,,1,1,5-8[8:1],,2,,5,,3,1,3,,2,,
8-5[8:1],,3,3,8,,2,,1,,5^8[8:1],2,5,2,5,,
3,,8,8,4-1[8:1],,7,,4,,6,8,6,,3,1,
3v8[8:1],,8,,7,,6,6,1,,2^5[8:1],5,2,5,2,,
6v1[8:1],,1,,2,,3,3,8,,7,4,6q2[4:1],5,6,,
{8}
2^5[4:1],,5^8[4:1],,8q4[4:1],,3,2,
{16}
1,5,2,6,3,7,4,8,5,1,4,8,3,7,2,6,
{8}
1b>3[8:1]*>3[8:1]/5h[4:1],,1,6,4h[4:1]/7^4[8:1]*^4[8:1],,7,3,
2-5[8:1]/4-7[8:1],,2/4,,5/7,6,4<3[8:7]*<3[8:7]/5,3,
{4}
2h[8:1],3h[8:1],4h[8:1],5h[8:1],
{8}
6h[8:1],,4-1[8:1]*-1[8:1]/7h[8:1],,8h[8:1],,2,3,
4-2[8:1]*-2[8:1]/8h[4:1],,4,7,1h[4:1]/6-1[8:1]*-1[8:1],,6,2,
3^8[8:1]/8^5[8:1],,3/8,,6/8,7,1-4[8:1]*-4[8:1]/8,2,
{4}
1/3h[8:1],2h[8:1],1-4[8:1]/5-8[8:1],1/5,
3-8[8:1]/7-4[8:1],3/7,
{512}
2-5[8:1],6-1[8:1],,,,,,,,,,,,,,,,,,,,,,,,,,,,,,,,,,,,,,,,,,,,,,,,,,,,,,,,,,,,,,,
,,,,,,,,,,,,,,,,,,,,,,,,,,,,,,,,,,,,,,,,,,,,,,,,,,,,,,,,,,,,,,,,
{4}
2/6,
{8}
3h[4:1]/8^5[8:1],,8,1,4h[4:1]/8>4[8:1],,8,6,
{512}
5-2[8:1],7-4[8:1],,,,,,,,,,,,,,,,,,,,,,,,,,,,,,,,,,,,,,,,,,,,,,,,,,,,,,,,,,,,,,,
,,,,,,,,,,,,,,,,,,,,,,,,,,,,,,,,,,,,,,,,,,,,,,,,,,,,,,,,,,,,,,,,
{8}
5/7,,2/4,3,2V47[2:1],1,
{4}
8,7V52[2:1],8,2V47[2:1],
{8}
1,,8,,1,,2-5[8:1]/7-4[8:1],3/6,
2/7,,1^4[8:1]*^4[8:1],,1/6,8^5[8:1],,3/8,
2qq7[4:1],,6,6h[8:3],,,4^7[8:1]*q1[8:1],,
4,,5^2[8:1],,6,5-8[8:1],,3h[4:1],
{4}
,4h[8:1]/8h[8:1],3h[8:1]/8h[8:1],2h[8:1]/8h[8:1],
{16}
1,6,2,7,3,8,3,1,3,2,3,4,3,5,3,6,
2/7,,,,4/5,4/5,,1-4[16:1]/8-5[16:1],1/8,,1b/8b,,,,3/6,,
{8}
7^4[8:1],4pp3[4:1],4,,2,2h[4:1],,1-4[8:1],
3/8-5[8:1],1,8,,4-1[8:1]/5-8[8:1],,4/5,,
{16}
2^5[8:1],,5qq4[16:3],,5,,,,6h[8:1],,,7h[8:1],,,8h[8:1],,
{4}
4-2[8:1]*-8[8:1],4,5-1[8:1]*-7[8:1],5,
{16}
6h[8:3],,1,,2,,3h[4:1],,5,,4qq3[4:1]*qq3[4:1],3/4,,,5,,
5,,6,,7^4[8:1]*^4[8:1],,4pp8[8:3]*pp8[8:3],,7,,1,1h[16:5],,,,,
{8}
,1^4[8:1],4,1,5^8[8:1],8,5,1,
{16}
1,,1/8,,2/7,,3,3/4,,4/5,,5/6,6,,7,,
{8}
3^8[8:1],8pp7[4:1],7,7,6,6h[4:1],,5,
4^1[8:1]/7^4[8:1],8,4q5[4:1]/7,,2h[8:1],,3h[8:1],,
{16}
6^1[8:1],,1qq8[16:3],,1,,2,,2h[8:1],,,3h[8:1]/1h[8:1],,,4/7,,
{4}
5bq4[4:1]/6b<3[4:1],,,8-4[8:1]*-4[8:1],
{8}
2h[4:1]/8,,8-3[8:1]*-3[8:1],1/7,6-1[8:1]*-1[8:1]/8,,2-6[8:1]*-6[8:1]/6,,
2/7h[4:1],,1-5[8:1]*-5[8:1],2/8,1/3h[4:1],,4^1[8:1]*^7[8:1],,
{4}
4b,4-1[8:1]*-7[8:1],4b,4w8[8:1]*-8[8:1],
{16}
4b,,,,2/6,,,,2,3,4,5,6>7[2:1],7,8,1,
{8}
2h[8:5]/6b,,,,,6h[4:1],,4h[8:1],
{16}
5h[8:1],,1,2,3,4,5,,4h[8:1],,8,7,6,5,4,,
3,,3,5,1/6,,,,4,3,2,1,8,7,6,5,
1,,2,,3,,4-8[8:1],,,,4/7,,7b,,7,6,
{8}
1h[4:1]/5h[4:1],,,3h[8:1]/7h[8:1],,2h[8:1]/6h[8:1],,4/8,
{24}
4/8,,,7,6,5,1,2,3,8,7,6,2,3,4,5,6,7,8,1,2,3,,,
{16}
7h[16:3],,,6h[16:3],,,5V71[8:1]*q1[8:1],,,,,,,,3,4,
{8}
2^5[8:1],1,2/8-4[8:1],7,1-5[8:1]/8,2,1/7^4[8:1],8,
3/7,3,3/4,3/4,3/5,3/6,3/7,3/8,
{16}
3,1,3,8,3,7,3,6,2b-6[8:1]/7b-3[8:1],,2b/7b,,,,,,
4-1[4:3]/5,,6,,7,,8,8,,7,,6,6,,5,,
6,,7,,8,,7,7,,6,,5,1-4[16:1]*-4[16:1]/5,,1/5,,
{1}
,
,
,
,
E
