&title=planet dancer [DX]
&artist=樽木栄一郎
&first=0
&des=FANdoraxxx
&wholebpm=127
&demo_seek=84.8
&demo_len=15.2
&des_5=FANdoraxxx
&lv_5=13+
&inote_5=(127){4},,,,B8/B7/E8,
B1/B2/E2,B5/B6/E6,B4/B3/E4,
{16}3h[8:1],,,3,4h[8:1],,,4,5h[8:1],,,5,6h[8:1],,,6p4>3V17[16:11],
{1}Cf,
{8}4/5,B7,{16}C,B2,,5,{8}4/6,3/7,{16}8bV63[8:1]/2b-5[8:1],1,,,,,,,{8}6<1[8:1],
3,{16}6h[16:3],,,2,3,4,5w1[8:1],8,
,,{8}5,{16},,,,6,5,4,3,8-3[16:1],,,6/8pp5[16:5],
,,,,{4}E2f/B1/B2,4w8[8:1],B4f/B5/B3,
E8/A7/A6/E7f,{16}E2/A2/A3/E3f,,,8-4[8:1],8,2-5[8:1],,8<2[4:1],,2,,8,
,,,,1,8,7,6,{2}5v7[8:1]*v8[8:1],
1w5[8:1],{16}1,2,3,4,{4}5v2[16:3]/6V83[16:3],
,A2/A3/E3/D3f,4w8[8:1],B4f/B5/B3,
3/E1/A8/A7/E8f,6/E1/A1/A2/E2f,{16}7,7,5,5,1,1,3,3,
{4}2h[4:1],7>2[4:1],2>5[4:1],5<8[4:1],
8>3[4:1],3V58b[4:1]*V51b[4:1],,,2<7[4:1],
7<4[4:1],4>1[4:1],1<6[4:1],
6V47b[4:1],2xV83b[4:1],,,7h[2:1],
6,2h[2:1],3,
6h[2:1],8,3h[4:1],1,
5q2[8:1]/2>5[8:1],5/2,1q6[8:1]/6<1[8:1],6/1,
E1f/B1/B8/A1/D1/A8,E4f/B3/B4/A3/D4/A4,E6f/B5/B6/A5/D6/A6,Cf,
{8}6,5/7,3,4/2,{16}7,5,,2,{8}4,6/8,
7,3/1,2,6h[16:9],{16}3,3,,7,{8}7,{16}1,1>7[4:1],
,,,,{4}8,8<2[4:1],1qq6[8:3],
{16},,,,,,,,1,4-7[8:1],,2-5[8:1],,4,,2,
,,,,{8}5/3,8,5/3,8,4/6,1,
4/6,1,3/4,8-5[8:1],{16},,,,1-4[16:1],1,,,{4}1/8-4[8:1],
1-5[8:1],1<6[8:1]/8-5[8:1],8>3[8:1]/1-4[8:1],
{2}1/8p6[4:1],{16}2,5-8[8:1],,2-5[8:1],,5,,2,
,,{8}4/2,6,5/7,{16}2,4,,7,{8}5,3/1,
2,6/8,7,3h[16:9],{16}6,6,,2,{8}2,{16}8,8<2[4:1],
,,,,{4}1,1>7[4:1],8pp3[8:3],
{16},,,,,,,,8,5-2[8:1],,7-4[8:1],,5,,7,
,,,,{8}4/6,1,4/6,1,5/3,8,
5/3,8,6/5,1-4[8:1],{16},,,,8-5[16:1],8,,,{4}1-5[8:1],
1/8-4[8:1],8>3[8:1]/1-4[8:1],1<6[8:1]/8-5[8:1],
{8}8/1q3[4:1],,,,,8b/4b,,,6-1[8:1],
1-5[8:1],5-2[8:1],2-4[8:1],,,{4}E8f/A8/B8/A7/D8/B7,
{8}3-8[8:1],8-4[8:1],4-7[8:1],7-5[8:1],,,{4}E2f/A1/B1/A2/D2/B2,
{8}8/1,2/7,6/3,4V26-8[4:1]/5V73-1[4:1],,,{4}Cf,
{32}5/E4,B3,B2,E2,,,,,4/E6,B6,B7,E8,,,,,5/E4,B3,B2,E2,,,,,4/E6,B6,B7,E8,,,,,{8}7-4[8:1],
4-8[8:1],8-3[8:1],3-1[8:1],,,{4}E6f/A5/B5/A6/D6/B6,
{8}2-5[8:1],5-1[8:1],1-6[8:1],6-8[8:1],,,{4}E4f/A4/B4/A3/D4/B3,
8qq5[8:3]/4qq1[8:3],8/4,,5-1b[8:1],
{16}5bh[4:1],,,,,,,5b,{8}3b/7b,5b/1b,{16}6b/4b,1b/3b,,4/6,
{4}5/3,{8}6<1[8:1],3,{16}6h[16:3],,,2,3,4,5w1[8:1],8,
,,{8}5b,{16},,,,6,5,4,3,8-3[16:1],,,6/8pp5[16:3],
E2f/B1/B2,,,,,,,2,{8}4,{16}5,7,,1/3,,6V84[16:3]/4V68[16:3],
,,{8}8/4,{16},,,1-5[8:1],1,7-4[8:1],,1>7[4:1],,7,,1,
,,,,8,1,2,3,{8}4v2[8:1]*-7[8:1],6/3,{4}4,
{8}8w4[8:1],7/1,{4}8,{16}1,2,3,4,{8}5v2[16:3]/6V83[16:3],2/8,
{4}6/5,{16}A3/E3/A2/D3f,,,2,{8}4,{16}7,5,,3/1,,2,
,,{8}7xh[4:1]/5xh[16:5],{16},,,7,5,8,4,1w5[8:1],,3/7,,1b/Cf,
,,,,8,1,2,3,{8}4v2[8:1]*-7[8:1],6/3,{4}4,
{8}8w4[8:1],7/1,{4}8,{16}8,7,6,5,{8}4v7[16:3]/3V16[16:3],7/1,
{4}3/4,{16}D7/A7f/E7f/A6f,,,7,{8}5,{16}2,4,,6/8,,7,
,,{8}2xh[4:1]/4xh[16:5],{16},,,2,4,1,5,8w4[8:1],,6/2,,8b/Cf,
,,,,{8}6,{16}3/5,3/5,,,8h[16:1],6h[8:1],,4h[16:9],,D2/E2/B2/A2f,
,D5/E5/B5/A5f,,D1/E1/B8/A8f,,,,,3/7,2/6,1/5,8/4,{8}7<4[8:1]/3>8[8:1],2/6,
{4}3/7,{16}Cf,,,7,{8}5,{16}4,2,,8/6,,7,
{8}2/4,{16}6,5,{8}7,{16}3,4,{8}2,{16}7,8,{8}6,4/8V25[8:1],
{16},,,,,,,2,{8}4,{16}5,7,,1/3,,2,
{8}7/5,{16}3,4,{8}2,{16}6,5,{8}7,{16}2,1,{8}3,{16}4/8,8/4,
{2}4/8-2>5[8:1],{16}7h[8:1]/2z6b[16:3],,,7,,8-3[16:1],
E
