&title=NEMSYS ARENA World Hexathlon
&artist=隣の庭は青い(庭師+Aoi)
&first=0
&des=FallingL@お誕生日おめでとう
&clock_count=4
&demo_seek=91.31
&demo_len=22
&lv_5=14+
&inote_5=(190){1},{12}3,5,4,6,4,5,2,4,3,6,5,7,
{4}1bpp5[2:1]/8h[4:3],,,,6bpp1[2:1]/E4f/B3/B4,,,,
8h[4:1]/2bV46[4:1],,1bV75-3[4:1],,A3f/D4/E4/8bpp5[2:1],,5x<7[32:3]*>2[8:1],,
{16}8h[2:1]/1bx,,,,1,,,,2,,,3,4,,26,,1h[2:1]/8b,,,,8,,,,7,,7,,5,6,5,6,4,5,4,,2b/6b,,,,7,8,7,,1b/5b,,,,
2,,18,,2b/7b,,6,5,7h[8:1],,{24}8,1,2,3bxpp8>4[32:25],,,1,8,7,{1}6qq1<5b[2:1],
{4}6bh[8:1]/3b,4/6h[8:1],5/6h[8:1],7/6h[8:1],8/7h[8:1],1/7h[8:1],{16}2/7,,6,5b,,3,4b,,
1bh[8:1]/6b,,,,7/1h[8:1],,,,2b,1,2,1,2bx,1,2,1,2bhx[8:1],,,4h[8:1]/6bhx[8:1],,,5bx/7,,1,8,1,8,2bx/7bx,,,,
3,4,3,4,3,4,3,4,2-7[8:1],,1,,28,,,,6,5,6,5,6,5,6,5,7-3[8:1],,8,,71,,,,
6bx/1x<6[8:1],,,,5b,,,,4b,5,4,6,3b,,,,{32}2b/7x,6x,5x,4x,3x,2x,1x,8x,{8}7x/1bx,,4-8[8:1]/5-1[8:1],36,4x/5x,,
{16}2x,1x,2x,1x,3,7,3,7,4,5,4,5,2-8[32:3],6,2,6,2-4[32:3],,5,5,2,,7,,1xw5b[8:1],,,,1b,,,,
{4}3xv8[8:1]/7x-4[8:1],3b/7b,{16}8x,7,8x,7,5,6,4h[8:1],,7,4,7,4,6,3,5h[8:1],,2,5,2,5,3,6,4h[8:1],,
8,5,,5,6,3,4h[8:1],,1,4,,4,3,6,5h[8:1],,8,5,,5,6,3,4h[8:1],,{24}1x,8,7,6,5,4,38,7,6,5bx-7v4b[16:3]/1bx-3v8b[16:3],,,
{16},,,,Cf/B2/B6,,,,1x,5x,1x,5x,3,4,3,4,2,1,2,1,3,7,3,7,4,5,4,5,3<6[8:1],4,2,,
3bx/1h[4:1],,,,8,,17,,26,,3,4,,6,5b<8[8:1],,,,{24}8,1,2,3,,,,,,1,,1,,1,,3,,3,,3,,
{1}2b<3[1:1]/4b<3[1:1],{6},,,5b/6b,2b/4b,1b/8b,
{12}7x,5,6,1,4,3,5,4,7,8,6,4,5,3,1,2,8,3,{24}7x,6,5h[12:1],,2x,1,8h[12:1],,5x,4,3h[12:1],,
{12}1-7[32:3]*-6[8:1],1,1,1b,,,4-2[32:3]*-1[8:1],4,4,4b,,,7,7,7,1b,1,8,{16}2,3,4,5,8>4-6z2[4:3],7,6,5,
{8}4hx[4:3],,,,,,,1b/7b,,6,5,4,38,16,25,47,
{16}1b/8b,,,,8/2V86-4[4:1],3,4,5,4x<1[24:5],,,,3hx[16:5],,,,2,,4,5,1>6[16:5],2>7[16:5],3<8[16:5],4<1[16:5],A1,A2,A3,A4,1x-3-8-4-7-5[8:5]/A5,A6,A7,A8,
{8}3hx[8:1],,4hx[8:1],,3,1qq8[4:1],,1/8V24[32:7]*q4[32:7],,,,,6xv7[8:1],2xv3[8:1],,,
{16}8b-4b[8:1],,,,8/3V15[16:3],,,,5-2[16:1],,,7-3[16:1],,,7,,1-5b[8:1],,,,1/6V84[16:3],,,,4-7[16:1],,,2-6[16:1],,,2,,
7x,5x,7,5,6,,3,4,3,4,2,,8qq5[2:1],1pp4b[16:7],8,1,{8}8x,,,,,,5/4>6[2:1],2h[4:1],
4b,,6xv1[16:3],5h[4:1],,,5>7[2:1],8h[4:1],5x,,7v2[16:3],6h[4:1],,,{16}5-1[8:1],,1-5[8:1],2,
{8}3,3-8[8:1],,3/2-6[8:1],,2/7>5[16:5],,6hx[8:3],,,{24}7x,8,1,2,3,4,{4}7v2[8:1]/5v2[8:1],,
{16}1,3,2b-5[16:1],,,4b-8[16:1],,,7bh[4:1],,,,1,,16,,8,6,7b-4[16:1],,,5b-1[16:1],,,2bh[4:1],,,,8,,83,,
1,3,2b-5[16:1],,,3b-8[16:1],,,7b-4[16:1],,,1b-6[16:1],,,5b-1[16:1],,,4b-2[16:1],,,8b-6[16:1],,,1b>4[16:1],,,5b<4b[16:7],,,5bhx[16:3],,,
,,,Chf[8:3],,,,,,,,,,,,4b,4,4,4,,,36,,,5,5,5,5,,,73,,,{12}81,1,1,7h[4:1],,,(285){8}8b,8,8,(190){12}8,,,37,,,56,56,56,{16}56,,,27,,,18,1h[16:1]/8h[16:1],,,,,
(190){16}2b,5,4,4,4h[16:1],,7b,4,5,5,5h[16:1],,1b,4,3,3,3h[16:1],,8b,5,6,6,6h[16:1],,4b,8,5,7,6,6,3b,7,4,6,5,5,2b,6,3,5,4,4,1b,5,2,4,3,3,1b,2,3,4,5<4b[16:5],6,7,8,
{2}1bh[8:3]/5b,{24}6,5,6,5,,,28,,,3,4,3,4,,,17,,,5,4,5,4,,,{16}7,5,6,2,4,3,8q2b[4:1],1,
{2}7bh[8:3],{24}1x,8,1,8,1,8,1,8,1,8x,1,8,1,2,3,4,5,6,2x,3,4,5,6,7,1b,,1b,,1b,,1b,,1b,,1b,,
{16}2h[8:1]/8h[8:1],,,3h[16:3]/4h[8:1],,,{32}2x,1,8,7,{16}4h[8:1]/6h[8:1],,,7h[16:3]/8h[8:1],,,{32}6x,5,4,3,{16}2h[8:1]/1h[8:1],,,3h[8:1]/7h[8:1],,,6,4,5h[8:1],,3,4,4-8b[8:1],4,4,4,
{8}4b>5[8:3],,,,,,,2b/7bpp2[8:5],,,,,,,,,
{1}8b<1[8:7]/1b,8b<1[8:7],{2}8b<1[16:5],8b<1[16:5],8b<5[16:1],{8}4bh[64:25]/5bh[64:25],,,{64},,D4/D6,A3/A6,D3/D7,A2/A7,D2/D8,A1/A8,
{8}D1f,,2x/7x,,24,81,5<4[16:7]/7,81,2h[4:1]/5,,,,{16}15,26,37,48,{24}5pp1[16:5],6,7,8,1,2,
3h[8:3]/5bx,,,,,,,,,8,27,61,{8}5/8w4[8:1],,8>6b[16:5],,2h[4:1],,,,78,25,16,34,
2b-5[8:1]/6bv1[8:1],,2/6<4[16:5],,{16}7,,,6,,,5q1[16:3],,6h[4:1],,,,,,{24}2,3,4,{8}1x-5[8:1]/5hx[4:1],,1qq3b[8:3],3,
1b/6h[8:3],,,,{16}2x,1,3,8,4,7,5,6,3,4,2,5,1,6,8,7,1b/6x,,3/4b,,2b/6,,1/8b,,
{8}7b/2b-6[8:1],,21,,75,18,4>5[16:7]/2,18,7h[4:1]/4,,,,{16}84,73,62,51,{24}4qq8[16:5],3,2,1,8,7,
6h[8:3]/4bx,,,,,,,,,1,72,38,{8}4/1w5[8:1],,1<3b[32:7],,7h[4:1],,{32}2,1,8,7,6,5,4,3,{4}6-1[8:1]/2v5[8:1],26,
{16}8h[16:3]/4b,,,5,56,,47,,1/2h[16:3],,,4,34,,25,,8b/7h[16:3],,,5,56,,48,,2-6b[8:1],1,3,1,2b,,,,
{8}8h[8:1]/5h[8:1],{48},,4/D8,A7,3/D7,A6,{4}2bx/D6f,{8}1h[8:1]/4h[8:1],{48},,5/D2,A2,6/D3,A3,{4}7bx/D4f,{8}1h[8:1]/5h[8:1],{64},,D1/4bx,A8,D8/3bx,A7,D7/2bx,A6,{4}D6f/1bx,{8}8h[8:1]/4h[8:1],{64},,D1/5bx,A1,D2/6bx,A2,D3/7bx,A3,{4}D4f/8bx,
{16}7b,4,6,5,8b,2,4,3,7b,,{32}3,4,3,4,2b,,,,6,5,6,5,{16}7b,,2,4,1b,7,5,8,{32}3b,2,1,8,7,6,5,4,{4}7b/3b,
{16}6b/1<6[8:1],,,,5b,,,,4b,5,4,6,3b,,,,{32}2b/7,6,5,4,3,2,1,8,{8}7-3-7b[4:1]/1b-5-1b[4:1],,Cf,Cf,,,
{1},,E
