&title=Designant.
&artist=Designant
&first=0
&des=GreeNITH
&des_5=GreeNITH
&lv_5=14.9
&inote_5=(200){1},
{16}
8bV25[4:5]/4bV61[4:5],,,,,,,,,,,,,,,,
{16}
,,,,,,,,,,,,5/3,,,,
{16}
2q4[8:9]/6q8[8:9],,,,,,,,,,,,,,,,
{16}
,,,,,,,,,,6/4,,,,6/4,,
{16}
7qq8[8:9]/3qq4[8:9],,,,,,,,,,,,,,,,
{16}
,,,,,,,,,,3/5,,2-4[8:1]/6-4[8:1],,,,
{16}
2/6,,,,1h[4:1]/7h[4:1],,,,,,8h[4:1]/3h[4:1],,,,,,
{16}
6,5,6,5,4h[4:1]/7h[4:1],,,,,,1h[4:1]/5h[4:1],,,,,,
{16}
4/6,,,,4/6,,,,6,,5,,6,,,,
{16}
6/8,,1,,6/2,,3-5[8:1],,7,,,,8,,8,,
{16}
8/3,,,,3/8,,,,3,,4,,3,,,,
{16}
3,,5,,4,,6,,5/7,,4,,3/5,,2,,
{16}
1-5[8:1],,,,1b/8b,,,,8,,4,,8,,,,
{16}
8/5h[4:1],,,,8,,2h[4:1],,8,,7,,6/2,,3,,
{16}
4/8-4[8:1],,,,8b/1b,,,,1,,,,1,,7,6,
{16}
5q1[8:1]/2q6[8:1],,,,,,,,4,7,4,7,3,6,2,5,
{16}
1b,,,,2/6,,2/6,,2/6,,,,4/5,,,,
{16}
3/8,,,,4/6,,5,,2/4,,3,,4/6,,7,,
{16}
8/4,,,,7/3,,7/3,,7/3,,,,5/4,,,,
{16}
6/1,,,,5/3,,4,,7/5,,6,,5/3,,2,,
{16}
3,5,2,6,3,5,2,6,1-5[8:1],,7,,1/8,,,,
{16}
7,5,8,4,7,5,8,4,1-5[8:1],,3,,1/2,,,,
{16}
3,4,2,5,1,6,8,7,1,2,3,4,{24}2q5[8:3],3,4,5,6,7,
{16}
8h[8:3],,,,,,,,3,2,1,8,7-2[8:1],6,5,4,
{16}
3h[4:1]/7b,,,,,,{32}8b-4[8:1]/3b,7/2,6/1,,,,,,8b/5b,,,,,,,,8b-4[8:1]/3b,7/2,6/1,,
{16}
,,8b/5h[8:3],,,,,,3,4,5,6,7<4[8:1],8,1,2,
{16}
3-8[8:1]/7b-3[8:1],,,,3b/7b,,,,,,{32}2b/6b,3/5,4,,,,,,3b/7b,4-1[8:1]/6-1[8:1],5,,
{16}
,,4b/6b,,,,,,{24}2,3,4,1,8,7,3,4,5,8,7,6,
{16}
5h[4:1]/1b,,1b,,,,{32}1b-5[8:1]/6b,2/7,3/8,,,,,,1b/4b,,,,,,,,1b-5[8:1]/6b,2/7,3/8,,
{16}
,,1b/4h[8:3],,,,,,6,5,4,3,2,1,8,7,
{16}
6/3,,4,5,3v6[8:1]/6-1[8:1],,,,3b/6b,,,,,,3b-6[8:1]/7b-2[8:1],,
{16}
,,3b/7b,,,,,,4bz8[8:1]*z8[8:1],,,,,,,,
{16}
6h[4:1]/2b,,,,,,{32}1b-5[8:1]/6b,2/7,3/8,,,,,,1b/4b,,,,,,,,1b-5[8:1]/6b,2/7,3/8,,
{16}
,,1b/4h[8:3],,,,,,6,5,4,3,2>5[8:1],1,8,7,
{16}
6-1[8:1]/2b-6[8:1],,,,6b/2b,,,,,,{32}7b/3b,6/4,5,,,,,,6b/2b,5-8[8:1]/3-8[8:1],4,,
{16}
,,5b/3b,,,,,,{24}7,6,5,8,1,2,6,5,4,1,2,3,
{16}
4h[4:1]/8b,,8b,,,,{32}8b-4[8:1]/3b,7/2,6/1,,,,,,8b/5b,,,,,,,,8b-4[8:1]/3b,7/2,6/1,,
{16}
,,8b/5h[8:3],,,,,,3,4,5,6,7,8,1,2,
{16}
3-8[8:1]/7-4[8:1],,,,3b/7b,,,,2/6,,2/6,,3,5,2,6,
{16}
1-5[8:1],,,,1v8[8:1]/5v4[8:1],,,,,,,,3,,2,,
{16}
8-4[8:1],,8,,1-3[8:1],,1,,7-5[8:1],,7,,4,,3,,
{16}
2-6[8:1],,2,,7-1[8:1],,7,,4V62[4:1]*V62[4:1],,3,,4,,,,
{16}
7-3[8:1],,7,,2-8[8:1],,2,,6-4[8:1],,6,,1,,2,,
{16}
3-1[8:1],,3,,5-7[8:1],,5,,8-4[8:1]*-4[8:1],,1,,2,,,,
{16}
1-5[8:1],,1,,8-6[8:1],,8,,2-4[8:1],,2,,5,,6,,
{16}
7-3[8:1],,7,,2-8[8:1],,2,,5V37[4:1]*V37[4:1],,6,,5,,,,
{16}
2-6[8:1],,2,,7-1[8:1],,7,,3-5[8:1],,3,,8,,7,,
{16}
6-8[8:1],,6,,4-2[8:1],,4,,1-5[8:1]*-5[8:1],,8,,7,,,,
{16}
4-1[8:1],,,,4,,6,,2-5[8:1],,5-1[8:1],,1-7[8:1],,,,
{16}
6-2[8:1],,,,6,,3,,1-5[8:1],,5V74[4:1],,1,,,,
{16}
3-8[8:1],,,,3,,5,,2-4[8:1],,4-1[8:1],,1-5[8:1],,,,
{16}
7-4[8:1],,,,7,,2v5[8:1],,6-8[8:1],,2,,6,,,,
{16}
2-4[8:1],1,2,,5-7[8:1],,6,,1-5[8:1],,2,,8,,7,,
{16}
7-5[8:1],8,7,,4-2[8:1],,3,,8-4[8:1],,7,,1,,2,,
{16}
2-5[8:1],1,2,,6-1[8:1],,7,,4,,3,,2bV48[16:5]/8b,,1b/7bV51[32:7],,
{16}
,,,,,,,,2,6,3,7,2-6[8:1],6,3,7,
{16}
2b,,,,7,,4,,3/5,,2v5[8:1]/4,,,,2/6,7,
{16}
8,1,2,3,4-1[8:1],5,6,7,4b,,,,7-3[8:1],3,6,2,
{16}
7b,,,,2,,5,,6/4,,7v4[8:1]/5,,,,7/3,2,
{16}
1,8,7,6,5-8[8:1],4,3,2,5b,,,,2,3,4,5,
{16}
8h[4:1]/6b,,,,4-8[8:1],,3,,2/4,,2,,5-1[8:1],,6,,
{16}
7/5,,7,,4,,3<6[8:1],,,,3/6,,,,,,
{16}
2/7,,1,8,2/7,,,,6/5,,5/4,,4/3-8[8:1],,,,
{16}
3/5,,,,1/5,,6V42[16:3]/2V46[16:3],,,,2/6,,,,,,
{12}
1b-5[8:1],,,,,,6b,4,3,5,3,2,
{12}
1b-5[8:1],,,,,,7b,3,3,8,4,4,
{12}
1b-5[8:1],,,,,,4b,6,3,7,2,8,
{12}
1b-5[8:1],,,,,,6b,5,7,2,4,3,
(180)
{12}
1b-5[8:1],,,,,,2,4,3,6,4,5,
(170)
{12}
1b,4,3,7,5,6,3,4,3,6,5,6,
(150)
{12}
1b,5,3,6,2,7,
(130)
{12}
1b,5,3,6,2,7,
(100)
{12}
1b-5[8:1]/8,7,6,4,3,2,1b-5[8:1]/8,7,6,4,3,2,
(90)
{16}
1bs5[1:1]/5bV37[16:9],,,,
(95)
{16}
,,,,
(100)
{16}
,,,,
(105)
{16}
,,,,
(110)
{16}
7-3[8:1],,,,
(115)
{16}
,,,,
(120)
{16}
4,4,5,5,
(130)
{16}
2v5[8:1]/7-4[8:1],,,,
(140)
{16}
2b/7b,,,,4,6,3,5,3,4,3,2,3,4,3,2,
{16}
3,4,2,5,4,7,5,6,3,4,2,5,4-1[8:1],7,5,6,
{16}
4b,,,,5,3,6,4,6,5,6,7,6,5,6,7,
{16}
6,5,7,4,6,5,8,3,6,5,1,2,7-3[8:1],3,8,2,
{16}
7b,,,,4,6,3,5,2,4,2,1,2,4,2,1,
{16}
3,8,4,7,1,6,2,5,3,8,4,7,1>4[8:1],6,2,5<8[8:1],
{16}
1b,,,5b-1[8:1],,,4,7-3[8:1],5b,,,7b,,,1,8,
{16}
2-5[8:1]/7,,,,2/6-1[8:1],,,,6/8V24[8:1]*V64[8:1],,,,8,,,,
(150)
{16}
2b/6b,,,,1h[128:1],6,5,6,1h[128:1],5,4,5,1h[128:1],4,3,4,
{32}
1h[128:1],,5,,2,3,4,,1h[128:1],,5,,8,7,6,,1h[128:1],,5,,2,3,4,,1b-6[8:1]*v4[8:1],,,,,,,,
(155)
{16}
1b,,,,8h[128:1],3,4,3,7h[128:1],3,4,3,6h[128:1],3,4,3,
{32}
5h[128:1],,5,,4,3,2,,6h[128:1],,6,,4,3,2,,7h[128:1],,7,,4,3,2,,8bv3[8:1]*z4[8:1],,,,,,,,
(160)
{16}
8b,,,,1h[128:1],6,5,6,1h[128:1],5,4,5,1h[128:1],4,3,4,
{32}
1h[128:1],,5,,2,3,4,,1h[128:1],,5,,8,7,6,,1h[128:1],,5,,2,3,4,,1b,,,,,,,,
(165)
{16}
4/6,4/6,,8b/7b,,,6/2,,3/5,3/5,,2b/1b,,,7/3,,
{16}
5/6-1[8:1],,,,6/8-5[8:1],,,,8/4-1[8:1],,,,4/2-5[8:1]*-7[8:1],,,,
(170)
{16}
2b,,,,4,6,3,5,
(175)
{16}
2,1,2,8,2,7,2,6,
(180)
{16}
8,7,1,6,8,7,2,5,
(185)
{16}
8,7,3,4,8-4[8:1],7,3,4,
(190)
{16}
8b,,,,5,3,6,4,
(195)
{16}
7,8,7,1,7,2,7,3,
(200)
{16}
1,2,8,3,1,2,7,4,
(205)
{16}
1,2,6,5,1-5[8:1],2,6,5,
(210)
{16}
1b,,,,3,4,2,5,
(215)
{16}
1,6,1,6,1,6,1,6,
(220)
{16}
2,7,2,7,3,8,3,8,
(225)
{16}
4,6,4,6,5-1[8:1],7,5,7,
(230)
{16}
5b,,,,7,8,7,8,
(235)
{16}
7,6,5,4,1,2,3,4,
(240)
{16}
5b/7b,,,,2b/4b,,2b/4b,,
(245)
{16}
,,1b/8b,,2b/7b,,,,
(250)
{16}
2b<8[8:1],,,,6b,,7b<5[8:1],,
(255)
{16}
,,3b,,4b>2[8:1],,,,
(260)
{16}
1b<6[8:1],,,,5b,,4b>1[8:1],,
(265)
{16}
,,8b,,7b<4[8:1],,,,
(270)
{16}
2b-6[8:1],,,,7b,,8b-4[8:1],,
(275)
{16}
,,2b,,1b-5[8:1],,,,
(280)
{16}
6b-1[8:1],,,,4b,,3b-8[8:1],,
(285)
{16}
,,5b,,6b,,,,
(290)
{16}
2-4[8:1],,,5,
(295)
{16}
,,1,,
(300)
{16}
8-6[8:1],,,5,
(305)
{16}
,,1,,
(310)
{16}
2-6[8:1],,,5,
(315)
{16}
,,1,,
(320)
{16}
8-4[8:1],,,5,
(325)
{16}
,,1,,
(330)
{16}
2,,2,,
(335)
{16}
4,,4,,
(340)
{16}
5,,5,,
(345)
{16}
7,,7,,
(350)
{8}
1,8,2,7,3,6,4,5,
{12}
3,2,1,8,7,6,3,2,1,8,7,6,
{16}
3b,2,1,8,7,6,5,4,3,2,1,8,7,6,5,4,
{16}
3,2,1,8,7,6,5,4,3,2,1,8,7p4[2:3],6,5,4,
(200)
{2}
3q5[8:5],
{2}
,
{16}
6h[8:3],,2h[8:3],,,,,,8s4[4:1]*s4[4:1],,,,{32},,,3h[32:37],,,,,
(100)
{16}
,,,,,,,,6,,5,,
(110)
{16}
4h[8:1]/2,,3,,
(120)
{16}
6/4h[8:1],,5,,
(130)
{16}
2/4h[8:1],2,,6,
(140)
{16}
6/4,,
(150)
{16}
4/2,,
(160)
{16}
4/7,,
(170)
{16}
4/1,,
(180)
{32}
4w8[8:1]/8,5,6,7,
(185)
{32}
8,1,2,3,
(190)
{8}
4b,
(195)
{8}
,
(200)
{16}
2-5[8:1],4,3,,2/6,,7,,8-4[8:1],4,6,2,8,,1,,
{16}
2,1,2,,3v8[8:1]/8,,5/6,,3<6[8:1],4,,4,3,,7,,
{16}
7-4[8:1],8,6,,7/1,,2,,3-1[8:1],5,1-5[8:1],6,3,,5,,
{16}
6-1[8:1],,7,,6,,2,3,4-8[8:1],,7<4[8:1],,4b,,7b,,
{16}
1,,2/8,,3-8[8:1]/7,,8-4[8:1],8,,,5,,6,,7,,
{16}
8,,7/1,,6-1[8:1]/2,,1-5[8:1],1,,,4,,3,,2,,
{16}
1/4,,2/5,,3/6h[8:1],,8,1,2/5,,3/6,,4/7h[8:1],,1,2,
{16}
8/3,,7,,6/1,,2,,{32}5w1[8:1],4,3,2,1,8,7,6,5b,,,,,,,,
{16}
7-4[8:1],5,6,,7/3,,2,,1-5[8:1],5,3,7,1,,8,,
{16}
7-3[8:1],,4-1[8:1],,7,,4V68[4:1],,,,2/4,,3,,4,,
{16}
2-5[8:1],1,3,,2/8,,7,,6-8[8:1],4,8-4[8:1],3,6,,4,,
{16}
3,,2v5[8:1],,1,,2/5>1[4:1],,,,8,,7,,6,,
{16}
8,,7/1,,6-1[8:1]/2,,1-5[8:1],1,,,4,,3,,2,,
{16}
1,,2/8,,3-8[8:1]/7,,8-4[8:1],8,,,5,,6,,7,,
{32}
8h[4:1],,,,,,,,5,4,3,2,8,7,6,5,1h[4:1],,,,,,,,4,5,6,7,1,2,3,4,
{16}
8,,7,,6,,5,,2/4,,7/3,,6/1,,8/3,,
{16}
2b,4,3,4,1b,5,4,5,8b,6,5,6,1b,,,,
{16}
2-4[8:1],,1-5[8:1],,2-6[8:1],,1,,2-8[8:1],,7-4[8:1],,2,,7,,
{16}
1,2,3,4,5h[8:1],,8,1,2,3,4h[8:1],,1,2/5,3/6,4/7,
{16}
5/8h[8:1],,4,6,3,7,2,8,1b-5[8:1],1b,1b,1b,1b,,,,
{16}
7b,5,6,5,8b,4,5,4,1b,3,4,3,8b,,,,
{16}
7-5[8:1],,8-4[8:1],,7-3[8:1],,8,,7-1[8:1],,2-5[8:1],,7,,2,,
{16}
8,7,6,5,4h[8:1],,1,8,7,6,5h[8:1],,2,1,8,7,
{24}
6/4,3,2,1,,,2/5,3/6,4/7,5/8,,,4,8,4,8,4,8,4,8,4,8,4,8,
{16}
3b/7b,,,,,,2b/6b,2b/6b,2b/6b,,,4b/5b,,,3b/6b,,
{16}
1b/5h[48:11],,,,
(150)
{48}
2bv4[8:1]/6b,3/7,4/8v6[12:1],5V31[119#64:69]*V71[119#64:69],,,,,,,,,{16}2b/8b,,,,,,,,,,,,E
