&title=Endless Seeker
&artist=A-One
&first=0.18
&des=Noodle vs TragiC
&des_5=Noodle vs TragiC
&lv_5=14
&inote_5=(163){4},{16},,,,,,,,,,,,E1,
,,E2,,,{8}E3,{16},,,,,,,,E8,
,,C,,,{8}E4,{16},,,,,,,,E7,
,,E6,,,{8}E5,{1},{4},,{16}E1,
,,E8,,,{8}E7,{16},,,,,,,,E2,
,,C,,,{8}E6,{16},,,,,,,,E3,
,,E4,,,{8}E5,{16},,,,,,,,,,,,,,,,2/6,
,,3,{8}4-1[8:1],{16}5,5,
{4}4,{8}6/2,{16}3,4,,4,{8}3,5-1[8:1],{16}6,6,
{4}5,{8}2/8,{16}3,4,,4,{8}3,7-4[8:1],{16}5,5,
{4}7,{8}5/1,{16}4,2,,2,{8}4,3-8[8:1],{16}5,5,
{4}3,{8}1/7,{16}2,8,,3,1,3,,7,6,5,
{4}4/2,{8}3/7,{16}6,5,,5,{8}6,4-8[8:1],{16}3,3,
{4}4,{8}7/1,{16}6,5,,5,{8}6,2-5[8:1],{16}4,4,
{4}2,{8}4/8,{16}5,7,,7,{8}3,8-6[8:1],{16}1,2,
8-2[8:1],3,{8}3,{16}8-4[8:1],4,{8}4,{16}8<5[8:1],5,{8}5,{16}8>3[8:1],3,{8}3,
{4}8,{8}4,{16}6,5,{8}6,4,{4}3b/7,
{8}8/2
,1,{16}1h[2:1],E7/B7,,E1/B1,,B3/E3,,B5/E5,,,8,2,
{8}8,3,{16}4h[2:1],E5/B4,,E3/B2,,B8/E1,,B6/E7,,3,{8}5,
6,7,{16}8h[2:1],E3/B2,,E1/B8,,B6/E7,,B4/E5,,,2,1,
{8}2,8,{16}5,7,,4,6,4,{8}6,{16}3,5,4,5,
{8}3,2,{16}8h[2:1],E3/B2,,E1/B8,,B6/E7,,B4/E5,,,1,7,
{8}1,6,{16}5h[2:1],E5/B5,,E7/B7,,B1/E1,,B3/E3,,6,{8}4,
3,2,{16}1h[2:1],E7/B7,,E1/B1,,B3/E3,,B5/E5,,,7,8,
{8}7,1,{16}2-6[8:1],4,,,{4}2-4[8:1]/5-1[8:1],
,
{8}8-6[8:1],5,8-2[8:1],4,8-6[8:1],{16}3,3,{8}8-2[8:1],4,
8-6[8:1],5,8-4[8:1],{16}4,4,,,,,{8}3,2,
1/5,{16}2,4,{8}2,{16}6,4,{8}6,{16}3,5,{8}3,{16}7,5,
{8}7,{16}4,6,5,6,{8}4,{4}7/3,6/2,
{8}1-3[8:1],4,1-7[8:1],5,1-3[8:1],{16}6,6,{8}1-7[8:1],5,
1-3[8:1],4,1-5[8:1],{16}5,5,,,,,{8}6,7,
8/4,{16}7,5,{8}7,{16}3,5,{8}3,{16}6,4,{8}6,{16}2,4,
{8}2,{16}5,3,4,3,{8}5,2/6,{16}7,1,{8}8,{16}2,1,
{8}3h[8:1],4,{16}2h[8:1],5,{8}5,3h[8:1],4,{16}2h[8:1],5,{8}5,
3h[8:1],4,{16}2h[8:1],5,{8}5,3h[8:1],4,{16}1,2,3,4,
{8}6,6h[8:1],{16}2,3,4,5,{8}7h[8:1],{16}4,6,{8}4,7>3v5[16:9],
,4b,4b,4b,4b,4b,{16},,7,5,
{8}6h[8:1],5,{16}7h[8:1],4,{8}4,6h[8:1],5,{16}7h[8:1],4,{8}4,
6h[8:1],5,{16}7h[8:1],4,{8}4,6h[8:1],5,{16}8,7,6,5,
{8}3,3,{16}2,4,{8}2,8,8,7/1,7/1,
{4}2-4[8:1]/6-8[8:1],6-3[8:1]/2-7[8:1],2>5[8:1]/6<1[8:1],6/2,
{8}8/4bx,8,5-8[8:1],{16}7,3,{8}5,2,{16}7,1,{8}7-4[8:1],
{16},8,{8}7,1,{16}5,3,{8}5,2/6,{16}3,5,{8}3h[8:1],
{16},1,2,1,{8}2-6[8:1],{16}8,8,{8}2,7-1[8:1],{16}5,5,{8}7,
{4}4>1[8:1],4<7[8:1],4-8[8:1],{8}4,{16}6,6,
{8}1-3[8:1],5,1-5[8:1],{16}4,4,{8}1,6,{16}7,4,{8}8-6[8:1],
{16},5,{8}8,4,{16}5,3,{8}5,2/6,{16}3,5,{8}3,
7h[8:1],{16}1,8,,2,{8}1,{16}3,4,{8}3,{16}5-2[8:1],4,{8}6,
7/5-1[8:1],{16}8<5[8:1],8,{8}5>2[8:1],8,{4}C,{8}4,{16}7,7,
{8}1,1,4-1[8:1],{16}2,6,{8}4,7,{16}2,8,{8}2-5[8:1],
{16},1,{8}2,8,{16}4,6,{8}4,7/3,{16}6,4,{8}6h[8:1],
{16},8,7,8,{8}7-3[8:1],{16}1,1,{8}7,2-8[8:1],{16}4,4,{8}2,
{4}5<8[8:1],5>2[8:1],5-1[8:1],{8}5,{16}3,3,
{8}8-6[8:1],4,8-4[8:1],{16}5,5,{8}8,3,{16}2,5,{8}1-3[8:1],
{16},4,{8}1,5,{16}4,6,{8}4,7/3,{16}6,4,{8}6,
2h[8:1],{16}8,1,,7,{8}8,{16}6,5,{8}6,{16}4,5,{8}3h[8:1],
{16}2,4,1,3,8-4[8:1],2,{8}7h[8:1],{2}8w4[8:1],
{16}7h[8:1]/1h[8:1],,,6h[8:1]/2h[8:1],,,{8}3/5-8-6[4:1],{16}4,4,{8}5,3,2,
{16}5h[8:1]/1h[8:1],,,6h[8:1]/2h[8:1],,,{8}3/7,8,{16}2,1,{8}2,8,
{16}7h[8:1]/3h[8:1],,,6h[8:1]/2h[8:1],,,{8}1/5,{16}2,4,,4,{8}3,{16}6,5,
{8}7h[8:1],{16}1,8,{8}2h[8:1],4,3/5,{16}6,4,6,4,{8}7,
{16}2h[8:1]/8h[8:1],,,3h[8:1]/7h[8:1],,,{8}6/4-1-3[4:1],{16}5,5,{8}4,6,7,
{16}4h[8:1]/8h[8:1],,,3h[8:1]/7h[8:1],,,{8}6/2,1,{16}7,8,{8}7,1,
{16}2h[8:1]/6h[8:1],,,3h[8:1]/7h[8:1],,,{8}8/4,{16}7,5,,5,{8}6,3/7,
{16}4/8,5,6,7,8/4,1,2,3,4/8,5,6,7,8/4,1/5,{8}2/6,
{4}3/7,{8}5/4,{16}6,5,{8}6,4,{4}7/3,
{8}8/2
,1,{16}1h[2:1],E7/B7,,E1/B1,,B3/E3,,B5/E5,,,8,2,
{8}8,3,{16}4h[2:1],E5/B4,,E3/B2,,B8/E1,,B6/E7,,3,{8}5,
6,7,{16}8h[2:1],E3/B2,,E1/B8,,B6/E7,,B4/E5,,,2,1,
{8}2,8,{16}5,7,,4,6,4,{8}6,{16}3,5,4,5,
{8}3,2,{16}8h[2:1],E3/B2,,E1/B8,,B6/E7,,B4/E5,,,1,7,
{8}1,6,{16}5h[2:1],E5/B5,,E7/B7,,B1/E1,,B3/E3,,6,{8}4,
3,2,{16}1h[2:1],E7/B7,,E1/B1,,B3/E3,,B5/E5,,,7,8,
{8}7,1,{16}2,4,,3,5,3,{8}5,{16}4,6,5,6,
{8}4-2[8:1],7,{16}4-6-3[4:1],8,,1,,8,,7h[16:1],,,2,6,
{8}2v5-3[8:3],4,{16}2,6,,7,,8,,1,2,1,{8}2,
8-6[8:1],4,{16}8-4-7[4:1],3,,2,,1,,2h[16:1],,,3,5,
{8}3,6/4,{16}7,5,,8,1,8,{8}1,{16}7,3,6,4,
{8}5-7[8:1],2,{16}5-3-6[4:1],1,,8,,1,,2h[16:1],,,7,3,
{8}7v4-6[8:3],5,{16}7,3,,2,,1,,8,7,8,{8}7,
1-3[8:1],5,{16}1-5-2[4:1],6,,7,,8,,7h[16:1],,,6,4,
{8}6,3/5,{16}2-5[8:1],4,,,{4}2/8-4[8:1],8bw4b[8:1],
{1}8b,
E
