&title=Shapeshifter
&artist=Avans
&first=0.575
&des=Dolive
&lv_5=14
&inote_5=(134)
,,,,
{24}4b,,5h[24:7],{8}3h[4:1],,,4,6,{24}5,,5,7,,,
{24}7,,5h[24:7],{8}6h[4:1],,,6,4,{24}2,,2,5,,,
1h[24:5]/4h[24:5],,,,,,,,,23,,,7h[24:5]/5h[24:5],,,,,,,,,6,,,
{24}2h[24:5],,,,,3h[6:1],,,,4,,,4-7[10:1]*-1[10:1],,35,,,,4b,,,,,,
8,,8,7h[4:1],,,{8}1,2,3<6[4:1],,5h,,7>2[4:1],,1h,,3q7[4:1],,6h,,
8h[8:3],,,1,{24}1h[24:5],,,,,7h[6:1],,,,5,,,
{8}6<2[4:1]/5,,2,3,4qq4[4:1],,8,,
6b,5,5pp6[4:1],,3<5[8:1],,,,,5,5pp5[4:1],,2>5[32:5],,,,,5,5pp4[4:1],,1q5[64:9],,,,
6h[8:1],,7h[8:1],,8h[4:1]/5s1[6:1],,,,
6,1,1pp1[4:1]/6,,6<1[8:1],,6,,3,8,8p7[4:1]/3,,3>8[8:1],,3,,
7h[8:1],5h[8:1],3h[8:1],1h[8:1],{24}8,,8,6,,6,4,,4,2,,2,
{8}7b>6[4:1],,,,1w5[8:1],,1b,,
{24}8,,,2,,6,{8}4p8[8:1],,4/3q6[4:1],,3/7,,
{24}7,,,5,,6,{8}4p7[8:1],,4/2q5[4:1],,2/6,,
{24}6,,,5,,7,{8}4v6[8:1],,4/1V35[32:5],,1/7pp6[4:1],,
{8}6>3[8:1],,4,,{24}2,,2,5,,5,8,,8,7h[8:1],,,
{24}1,,,7,,3,{8}5q1[8:1],,5/6p3[4:1],,6/2,,
{24}2,,,4,,3,{8}1p5[8:1],,1/7p4[4:1],,7/4,,
{24}3,,,4,,2,{8}5v3[8:1],,5/8-5[8:1],1,84,,
{8}4/2V84[32:5],5,6,7,{24}8,,8,4,,4,6,,6,2h[8:1],,,
{24}4,,,2,,6,{8}8v5[8:1],1,7V16[32:5],6,4,3,
{24}2,,,8,,4,{8}6-2[8:1],5,3V14[32:5],4,1,7,
{24}6,,,4,,8,{8}2v8[8:1],3,7V53[32:5],6,1-5[8:1],,
4<7[8:1]/1>3[32:3],,41,,{24}7,,7,3,,3,5,,5,1h[8:1],,,
{24}7,,,3,,5,{8}1v4[8:1],8,2V83[32:5],3,5,6,
{24}7,,,1,,5,{8}3V17[8:1],4,6v4[8:1],5,8,2,
{24}1,,,5,,3,{8}7v1[8:1],6,2V86[32:5],3,8-3[8:1],,
5-1[8:1]/8,4,65,7,{16}1,{32}7,6,5,2,3,4,{16}8b,,,,
{24}2b/6b,,,3,,4,,,4,3,,6,5h[8:1],,,7,,,7,,4,5,,3>8[10:1],,,,,,3,5h[8:1],,,,,,6,,6,5,,5,7h[8:1],,,1,,53,,,,,,,
2,,2,4,,4,3h[8:1],,,,,6h[6:1]/5h[6:1],,,,,,,65,,74,,,12,,,,35,,,78,,16,,,4h[24:7]/2,,,,,,,
3b,,,43,,,6,5,6,3,4,3,7h[8:1],,,1,2,3,46,,64,,,,3,,2-5[8:1]/5,,,18,,,2,6,,,7,,5>2[8:1],6,,4,7,,5,,,8b,{32},,,,{48},,,7,6,5,{8}4,12,{24}3,,3h[8:1],,,4,25,,,,,,
{8}1h[8:1]/7,5,8h[8:1]/2,4,{24}17,,26,,,8b/4,,,,,,,
35,,,2-8[32:3],,5,3,,4,2,,,7-5[32:3],,1,6,,8,7,,,2,,4h[6:1]/3h[6:1],,,,,,6,5,,5,,,6h[24:1]/4h[24:1],,,3,4,,4,1,,,2,,8,,,,64,,,3,,3,,,4,2,,6,,5,,7h[8:1],,,,,8-5[6:1]/6h[24:10],,,,,,,,,,,,,6,,6,5,,5,4,,,43,45,65,,,,
7h[24:5],,,,,6h[6:1],,,,5bw1[8:1],,,,,,5,,,,,,37,,64,,,28,,,15,1h[4:1]/5h[4:1],,,,,,{32},62,37,84,{24}51,,,,,1bq4[24:19]/5bqq7[3:2],{1},
{12}7,7,7,57,5,5,3h/5,2h,1h,8h/4bw8[10:1],,,
{8}4<7[8:1],,1/4V25[32:5],2,4/8>6[32:5],7,8,,
{48}1b/8,2,3,,,,8,,,,,,7b/8,6,5,,,,8,,,,,,1b/8-4[8:1],2,3,4,,,8,,,,,,{4}7p3[32:3]/8,
{8}5>2[8:1],,2,1,{24}8-4[8:1],7,6,4,3,2,18,,,,,,
{48}8b/1,7,6,,,,1,,,,,,2b/1,3,4,,,,1,,,,,,8b/1,7,6,5,,,1,,,,,,2b/1p8[16:3],3,4,5,,,1,,,,,,{4}1b,
{12}2,2,2,42,4,4,46,6,6,68,8,8,28,3,4,74,6,5,1h[8:1]/5h[8:1],,,
{16}1,4,3,,28,,{16}7,5,4,2,6,3,8b,,,,
{48}7b/1h[8:1],6,{6}5,{48}5b/1,6,{8}7,28,{48}2b/8h[8:1],3,{6}4,{48}4b/8,3,{8}2,,
{48}7b/8,6,5,,,,,,,,1b/8,2,3,4,,,,,56,,,,,,2b/1,3,4,,,,,,,,8b/1,7,6,5,,,,,43,,,,,,
1/7b,6,5,4,,,,,,,1b/8,2,3,4,5,,,,64,,,,,,8/2b,3,4,5,,,,,,,8b/1,7,6,5,4,,,,35,,,,,,
2bV85[8:3]/6bV41[8:3],37,84,51,
