&title=bloom
&artist=NECRY TALKIE
&first=-0.165
&des=邪恶前任联盟
&lv_5=13+
&inote_5=(220)
{1},,
{4}5h[8:1]/7h[8:1],5h[8:1]/7h[8:1],5h[8:1]/6h[8:1],5h[8:1]/6h[8:1],
{4}4h[8:1]/6h[8:1],4h[8:1]/6h[8:1],4h[8:1]/5h[8:1],4h[8:1]/5h[8:1],
{4}3h[8:1]/5h[8:1],3h[8:1]/5h[8:1],3h[8:1]/4h[8:1],3h[8:1]/4h[8:1],
{8}26,1x,7x,2x,6x,3x,5x,4x,
{8}8b-5[8:1],,3,,2-5[8:1],,4,,
{8}6,6,5,7,4,5,2,4,
{8}3q5[8:4],3,5,6,,8,8,,
{8}5x-3[8:1]*-7[8:1],,5,,4x-6[8:1]*-2[8:1],,4,,
{8}1b-5[8:1],,5,,7-3[8:1],,4,,
{8}2,2,4,1,6,3,8,5,
{8}7b<2[8:8],,,,1hx[8:6],,,,
{8},,,,8b/2b,8b/2b,,,
{8}6h[8:2]/5,,5,6,3,4,,,
{8}6h[8:2]/5,,5,6,3,4,,,
{8}6h[8:2]/5,,5,6,3,4,2,2,
{8}6,4,6,5,7,4,5,3,
{8}2h[8:2]/4,,4,2,7,5,,,
{8}2h[8:2]/4,,4,2,7,5,,,
{8}2h[8:2]/4,,4,2,7,5,6-8[8:1],,
{8}6-2[8:1],,6,,8,8,1,,
{8}3h[8:2]/5,,4,4,2,,12,,
{8}7h[8:2]/4,,3,5,1,,,,
{8}6h[8:2]/4,,5,5,7,,87,,
{8}2h[8:2]/5,,6,4,8,,,,
{32}7x/1hx[8:5],E7,E6,E5,,,,,
{16},,,,,,4,,2,,2,,
{16}5-7[8:1],,,,4-2[8:1],,,,5-1[8:1],,,,4,,,,
{8}2x^5[8:1],,8,,7xp3[8:1],,1,,
{8}2x^5[8:1],,8,,7xp3[8:1],,1,,
{8}2x^5[8:1],,8,,7xp3[8:1],,1,,
{8}2,2,8,3,7,4,6,5,
{8}6x^1[8:1],,4,,3xp7[8:1],,5,,
{8}6x^1[8:1],,4,,3xp7[8:1],,5,,
{8}6x^1[8:1],,4,,3xp7[8:1],,5,,
{8}6,6,4,4,5,5,3,3,
{8}7h[8:2],,5-2[8:1],,8,,6u,6,
{8}1h[8:2],,3-7[8:1],,2,,4,4,
{8}6h[8:1],5h[8:1],7h[8:1],4h[8:1],6h[8:1],3h[8:1],5h[8:1],2h[8:1],
{8}4x-1[8:1],,34,,8x-6[8:1]/5x-3[8:1],,,,
{8}1-3[8:1],,4,,6-8[8:1],,5,,
{8}2-5[8:1],,1,,7-2[8:1],,4,,
{8}3b,3,4,4,2,,56,47,
{8},35,26,,1-5[8:1],8,1b,,
{32}7x/3x>5[4:6],E7,E6,E5,,,,,
{4},,,,,,,
{8}2bx/4bx,,4bx/5bx,,7bx/5bx,,1,2bx/8bx,
{8},5,6bx/4bx,,17,17,2bx-5[8:1]/6bx-1[8:1],,
{8}Cf,,,,4/8h[8:2],,6,,
{8}6/2h[8:2],,4,,5h[8:2]/4,,7,,
{8}6bx^3[8:4]/5bx^3[8:4],,,,,,,,
{24}1x,2x,3x,4xh[8:3],,,,,,,,,2x,3x,4x,5xh[8:3],,,,,,,,,
{8}3-1[8:1],,4,,6-4[8:1],,8,,
{8}2-4[8:1],,1-5[8:1],,2,,46,,
{8}7,7,5,5,6,4,7,3,
{8}8x^5[8:1],,8xp4[8:1],,8xv2[8:1],,8x,,
{2}1bx-7-5-3-1<2[4:7],,,,
{1}6h[8:8],
{32}8b,1b,2b,,,,,,
{4},,,
{8}7bx-4[8:1],,7,2,8-3[8:1],,8,5,
{8}7V53[8:2],,3V17[8:2],,7V53[8:2],,3,,
{8}1x-5[8:1],,12,,8x-4[8:1],,78,,
{8}1x<5[8:2]*>5[8:2],,,,,3,4,5,
{8}6V47[8:2],,8,1,2-5[8:1],,6,7,
{8}8-3-7[8:2],,1,1,,4,4,5,
{8}6x^3[8:1],3,6,1x-5[8:1],4,1,7x-4[8:1],8,
{8}7,2x-6[8:1],1,2,8x-5[8:1]*-3[8:1],,8,,
{8}2bx-5[8:1],,2,7,1-6[8:1],,1,4,
{8}2V46[8:2],,6V82[8:2],,2V46[8:2],,6,,
{8}8x-4[8:1],,87,,1x-5[8:1],,21,,
{8}8x>4[8:2]*<4[8:2],,,,,,54,,
{8}3qq8[8:4]/6,,4,4,,,7,,
{8}6pp1[8:4]/3,,5,5,,,2,,
{8}3qq8[8:4]/6,,4,4,,,7,,
{8}6pp1[8:4]/3,,5,5,,,2,,
{8}45,5,56,5,25,5,58,5,
{8}45,45,36,36,27,27,18,18,
{1}1bxs5b[8:4]/8bxz4b[8:4],
{8}7x-5[8:1]/3x,,2x-4[8:1]/7x,,8x-4[8:1]/2x,,1x-5[8:1]/8x,,
{8}6bx/1bx,,83,,65,5,7,,
{8}61,,83,,65,5,7,,
{8}1^6[8:1],,6,,8^3[8:1],,3,,
{8}1pp4[8:4]/5pp8[8:4],,,,,,,,
{8}47,,25,,43,4,1,,
{8}47,,25,,43,4,1,,
{8}8b/2b,,75,7b/5b,,34,3b/4b,,
{8}1,7,2b/6b,,3x,4,2/5,5x,
{8}4,8/3,3x,4,1/5,5x,4,7/3,
{16}7x,6x,5x,4x,1x,2x,3x,4x,8b,,,,2,,2,,
{8}5,4,7,5,6,6,3,4b,
{8}1,1,6,5b,8,2,3b/7b,,
{8}6-4[8:1],,3-6[8:1],,7-3[8:1],,1V38[8:2],,
{8}5h[8:4],,,,8,,17,,
{8}2bx-5[8:1],,6bx-2[8:1],,1bx-6[8:1],,8bx<1[8:4],,
{8}3hbx[8:8],,,,,,,,
{1}7s3[4:27],,,,,,,
{16},,,,,,4,5,4,,4,,5,,,,
{8}3h[8:1],6,4h[8:1],6,3h[8:1],6,4h[8:1],6,
{8}2hx[8:1],7,4hx[8:1],7,2hx[8:1],7,4hx[8:1],7,
{8}1x-3[8:1],,1x-6[8:1],,1x-4[8:1],,1x,,
{8}56,56,,,34,34,,,
{8}7bp4[8:4]/2b,,,8,8,,1,,
{8}2q5[8:4],2,,1,1,,8,,
{8}17,1,14,1,17,1,14,1,
{32}6b,7b,8b,,,,,,
{4},,,
{16}25,,6,,5,,47,,3,,4,,2,5,2,5,
{8}2bx^5[8:1],,2,7,1^6[8:1],,1,4,
{8}2V46[8:2],,6V82[8:2],,2V46[8:2],,6,,
{8}8xv5[8:1],,87,,1xv4[8:1],,21,,
{8}8xV63[8:2]*V25[8:2],,,,,6,5,4,
{8}3V52[8:2],,1,8,7-4[8:1],,3,2,
{8}1-6-2[8:2],,8,8,,5,5,4,
{8}3x^6[8:1],6,3,8x-4[8:1],5,8,2x-5[8:1],1,
{8}2,7x-3[8:1],8,7,1x-4[8:1]*-6[8:1],,1,,
{8}7bx^4[8:1],,7,2,8^3[8:1],,8,5,
{8}6-3[8:1],6,1-5[8:1],1,7-4[8:1],7,2-6[8:1],2,
{8}8b^5[8:1]*-3[8:1],,8b,,1b^4[8:1]*-6[8:1],,1b,,
{8}8bV64[8:2]*V24[8:2],,,,,,45,,
{8}3>6[8:4]/6,,7,,5,,4,,
{8}6<3[8:4]/3,,2,,4,,5,,
{8}3>6[8:4]/6,,7,,5,,4,,
{8}6<3[8:4]/3,,2,,4,,5,,
{8}45,5,56,5,25,5,58,5,
{8}45,45,36,36,27,27,18,18,
{1}1bhx[8:7]/8bhx[8:7],
{24}2bx/7bx,3bx/6bx,4bhx[24:7]/5bhx[24:7],,,,,,,,,,2bx/7bx,3bx/6bx,4bhx[24:7]/5bhx[24:7],,,,,,,,,,
{24}1bx/8bx,2bx/7bx,3bx/6bx,4bhx[8:7]/5bhx[8:7],,,,,,,,,,,,,,,,,,,,,
{8},6x,3x,7x,2x,8x,1x-5b[8:1],8x,1b,,,,
