&title=大东北是我的家乡
&artist=何玉
&first=0
&des=FOMIK
&des_5=FOMIK
&des_6=FOMIK
&lv_5=11
&lv_6=13
&inote_5=(128)
{16},,,,,,,,,,,,,,,,26,,,,37,,,,26,,,,37,,,,26,,,,37,,,,26,,,,37,,,,26,,,,37,,,,26,,,,37,,,,26,,,,37,,,,26,,,,37,,,,26,,,,26,,,,37,,,,37,,,,26,,
{16},,26,,,,37,,,,37,,,,26,,,,26,,,,37,,,,37,,,,1,2,3,4,8,7,6,5,4,3,2,1,8h[8:2],,,,1,,,,57,,,,24,,,,57,,,,24,,,,57,,,,24,,,,57,,,,24,,,,57,,,,24,,,,57,,
{16},,24,,,,57,,,,24,,,,57,,,,24,,,,24,,,,57,,,,57,,,,24,,,,24,,,,57,,,,57,
{16},,,24,,,,24,,,,57,,,,57,,,,24,,,,24,,,,57,,,,57,,,,1,8,2,7,3,6,4,5,4,6,3,7,2h[8:2],,,,1-6[8:1],,,,2-5[8:1],,,,1-6[8:1],,,,2-5[8:1],,,,1pp1[8:2]*qq1[8:2],,,,,,,,A1f,,,,,,,,5,,4,,7<2[8:4],,,,8,,1,,2>7[8:4],,,,1,,8,,7h[8:2],,,,,,,,1,,,,5h[8:2],,,,6h[8:2],,,,7h[8:8],,,,,,,,B1,,B2,,B3,,B4,,B5f,,,,
{16},,,,5bh[8:12],,,,4<6[8:1],,,,,,,,6-4[8:1],,,,,,,,4-6[8:1],,,,,,,,Cf,,,,3,,,,3,,,,3>6[8:4],,,,3,,,,8h[8:2],,,,,,,,1,,,,2,,,,6,,,,5,,,,3<6>3[8:6],,,,1,,,,1,,,,8,,,,6h[8:2],
{16},,,,,,,1,,2,,1,,,,8,,7,,8,,,,1qq3qq5[8:4],,,,6bh[8:1],,,,6xbh[8:1],,,,,,,,7-5[12:1]/4-2[12:1],,,,47,,,,2-4[12:1]/5-7[12:1],,,,52,,,,Ch[8:6],,,,,,,,,,,,,,,,
{16}4,5,3,6,2,7,1,8,1,7,2,6,3h[8:2],,,,7-3[8:1],,,,7-5[8:1]/1-5[8:1],,,,7-3[8:1]/1-3[8:1],,,,7-5[8:1]/1-5[8:1],,,,7-3[8:1]/1-3[8:1],,,,7-5[8:1]/1-5[8:1],
{16},,,7-3[8:1]/1-3[8:1],,,,71,,,,2qq7[8:2],,,,6qq3[8:2],,,,,,,,,,,,2qq8q5[8:4]/7pp1p3[8:4],,,,27,,,,,,,
{16},,,,,2V48[8:2],,,,7V51[8:2],,,,,,,,,,,,4<5v2-8[8:4]/6>5v8-2[8:4],,,,,,,,,,,,,,,,8q5[8:2]*>5[8:2],,,,8,,,,A5,,,,5qq5[8:6]*pp5[8:6],,,,5
{16},,,,,,,,,,,,,,,,2-6[8:1],,,,2-4[8:1]/8-4[8:1],,,,2-6[8:1]/8-6[8:1],,,,2-4[8:1]/8-4[8:1],,,,2-6[8:1]/8-6[8:1],,,,2-4[8:1]/8-4[8:1],
{16},,,2-6[8:1]/8-6[8:1],,,,28,,,,3qq5[8:2],,,,6pp4[8:2],,,,6,,,,3,,,,1-5[8:1]/2-4[8:1],,,,1-7[8:1]/2-6[8:1],,,,1-5[8:1]/2-4[8:1],,,,12,,,,1h[8:4],,,,,,,,7b,,,,,,,,1h[8:4],,,,,,,,2b,,,,,,,,4qq4[8:1]*pp4[8:1],,,,4,,,,5qq5[8:1]*pp5[8:1],,,,5,,,,Ch[8:6],,,,,,,,,,,,,,,,1,8,2,7,3,6,4,5,4,6,3,7,2h[8:2],,,,6,,
{16},,62,,,,73,,,,62,,,,73,,,,62,,,,73,,,,62,,,,73,,,,62,,,,73,,,,62,,,,73,,,,62,,,,73,,,,62,,,,73,,,,73,,,,62,,,,62,,,,73,,
{16},,73,,,,62,,,,62,,,,73,,,,73,,,,62,,,,62,,,,8,7,6,5,1,2,3,4,5,6,7,8,1h[8:2],,,,8,,,,42,,,,75,,,,42,,,,75,,,,42,,,,75,,,,42,,,,75,,,,42,,,,75,,,,42,,
{16},,75,,,,42,,,,75,,,,42,,,,75,,,,75,,,,42,,,,42,,,,75,,,,75,,,,42,,,,42,
{16},,,75,,,,75,,,,42,,,,42,,,,75,,,,75,,,,42,,,,42,,,,4,5,3,6,2,7,1,8,1,7,2,6,3h[8:2],,,,Cf,,,,
E
&inote_6=(128)
{24},E6/B4,E6/B4,E6/B4,E6/B4,E6/B4,E6/B4,E6/B4,E6/B4,E6/B4,E6/B4,E6/B4,E6/B4,E6/B4,E6/B4,E6/B4,E6/B4,E6/B4,E6/B4,E6/B4,E6/B4,
{16},,26,,,,37,,,,26,,,,37,,,,26,,4,,37,,5,,2v5[8:1]/6-1[8:1],,,,26,,,,37,,,,26,,,,37,,,,26,,,,37,,1,,26,,8,,7v4[8:1]/3-8[8:1],,,,37,,,,26,,1/7h[8:1],2,3x-5-1[4:1],,,,3/6h[8:2],,,,,,,,37,,
{16}8/2h[8:1],7,6x-2[8:1]*-8[8:1],,,,6,,,,37,,,,26,,,,26,,,,37,,,,37,,,,1,2,3,4,8,7,6,5,4,3,2,1,8h[8:2],,,,1,,,,57,,,,24,,,,57,,,,24,,3,,57,,6,,2-5[8:1]/4-8[8:1],,,,24,,,,57,,,,24,,,,57,,,,24,,
{16},,57,,6,,24,,3,,5-1[8:1]/7-5[8:1],,,,57,,,,24,,2h[8:1]/5,6,7x,,,,75,,7h[8:1]/4,3,2x,,,,8,,7,6,5x-1[8:1],,1,2,3x-7>2[8:2]*-7<4[8:2]/5,,,,3x,,,,,
{16},,,14,,2,,35,,2,,1-3[8:1]/6-8[8:1],,,,16,,,,47,,5,,37,,5,,27,,,,1,8,2,7,3,6,4,5,4,6,3,7,2h[8:2],,,,8-3[8:1],,,,1-6[8:1],,,,7-4[8:1],,,,2-5[8:1],,,,6pp1[8:5],,,,2-4[8:1],,,,2-5[8:1],,,,2,,,,6<1[8:2],,5,,4,,,,3h[8:2],,2,,4,,,,5qq5[8:2]/7-5[8:1],,,,,,,,6-8v1-3[8:2],,,,4,,,,5h[8:2],,,,6h[8:2],,,,7>4[8:8],,,,,,,,B3,,B2,,B1,,B8,,B7,,,,B6f,,
{16},,4>1b[8:1],,,,,,,,8<5b[8:1],,,,,,,,1v6b[8:1]/5v2[8:1],,,,1-4b[8:1]/5-8[8:1],,,,1-5b[8:1]/5-1[8:1],,,,1/5/Cf,,,,36,,,,3,,,,3,,,,3>6[8:4],,,,3,,,,8h[8:2],,,,,,,,1,,,,2,,,,6,,,,5,,,,3<6>3[8:6],,,,1,,,,1,,,,8,,,,6h[8:2],
{16},,,1,,2,,1,,,,8,,7,,8,,,,1qq3qq5[8:4],,,,6bh[8:1],,,,6xbh[8:1],,,,,,,,7-5[12:1]/4-2[12:1],,,,47,,,,2-4[12:1]/5-7[12:1],,,,52,,,,Ch[8:6],,,,,,,,,,,,,,,,
{16}4,5,3,6,2,7,1,8,1,7,2,6,3h[8:2],,,,7-3[8:1],,,,7/1>4[8:1],,,,1/6-8-4[8:2],,7,,2-5[8:1]/6,,,,2/6v8[8:1],,7,,6/1-5[8:1],
{16},,,1v3[8:1]*v7[8:1],,,,1,,,,5-8[8:1]*-1[8:1],,,,5,,,,4-8[8:1]*-1[8:1],,,,4,,,,2qq8q5[8:4]/7pp1p3[8:4],,,,27,,,,,,,
{16},,,,,7-1[8:1]/2-6[8:1],,,,,,,,1<6[8:1]/6>3[8:1],,,,,,,,27,,8,,2-5<7[8:2]/7-4>2[8:2],,1,,27,,,,,,,,8q5[8:2]*>5[8:2],,,,8,,,,A5,,,,5qq5[8:6]*pp5[8:6],,,,5
{16},,,,,,,,,,,,,,,,2-6[8:1],,,,2/8<5[8:1],,,,8/3-1-5[8:2],,2,,7-4[8:1]/3,,,,7/3v1[8:1],,2,,3/8-4[8:1],
{16},,,8v6[8:1]*v2[8:1],,,,8,
{16},,,4-1[8:1]*-7[8:1],,35,,4,,,,8-3[8:1]*-5[8:1],,17,,8,,,,5-7[8:1],,6,,5-3[8:1],,4,,5-8[8:1],,6,,5,,,,1h[8:4],,,,,,,,7b,,,,,,,,1h[8:4],,,,,,,,2b,,,,,,,,4pp4qq4[8:4],,,,4,,,,6,,,,5,,,,Ch[8:6],,,,,,,,,,,,,,,,1,8,2,7,3,6,4,5,4,6,3,7,2h[8:2],,,,6,,
{16},,62,,,,73,,,,62,,,,73,,5,,62,,4,,7v4[8:1]/3-8[8:1],,,,73,,,,62,,,,73,,,,62,,,,73,,,,62,,8,,73,,1,,2v5[8:1]/6-1[8:1],,,,62,,,,73,,8/2h[8:1],7,6x-4-8[4:1],,,,6/3h[8:2],,,,,,,,62,,
{16}1/7h[8:1],2,3x-7[8:1]*-1[8:1],,,,3,,,,62,,,,73,,,,73,,,,62,,,,62,,,,8,7,6,5,1,2,3,4,5,6,7,8,1h[8:2],,,,8,,,,42,,,,75,,,,42,,,,75,,6,,42,,3,,7-4[8:1]/5-1[8:1],,,,75,,,,42,,,,75,,,,42,,,,75,,,,42,,3,,75,,6,,4-8[8:1]/2-4[8:1],,,,42,,,,75,,7h[8:1]/4,3,2x,,,,24,,2h[8:1]/5,6,7x,,,,1,,2,3,4x-8[8:1],,8,7,6x-2<7[8:2]*-2>5[8:2]/4,,,,6x,,,,,,,,85,,7,,64,,7,,8-6[8:1]/3-1[8:1],,,,83,,,,52,,4,,62,,4,,72,,,,8,1,7,2,6,3,5,4,5,3,6,2,7h[8:2],,,,Cf,
E
