&title=Xingularity
&artist=Alicemetix ex-ZAQUVA
&first=0.062
&des=奏坂学園 譜面部 1年生 布衣
&lv_5=14
&des_5=奏坂学園 譜面部 1年生 布衣
&inote_5=
(162){4},,,,,,,,4h[4:1],
6h[4:1],8-4[8:1],8,
5h[8:1],3h[8:1],1-5[8:1],1,
4h[4:1],6h[4:1],8v3[8:1],8,
5h[8:1],3h[8:1],{8}1v6[8:1],8,{4}1,
4h[4:1],6h[4:1],8p4[8:1],8,
5h[8:1],3h[8:1],1q5[8:1],1,
4h[4:1],6h[4:1],8p3[8:1],8,
5h[8:1],3h[8:1],{8}1q6[8:1],8,{4}1,
4h[4:1],6h[4:1],8-4[8:1]*-3[8:1],8,
{8}5h[4:1],4,3h[4:1],2,{4}1-5[8:1]*-6[8:1],1,
4h[4:1],6h[4:1],8v3[8:1]*z4[8:1],8,
{8}5h[4:1],4,3h[4:1],2,1v6b[8:1]*s5b[8:1],8,{4}1b,
4h[4:1],6h[4:1],8V64[8:1]*p4[8:1],8,
{8}5h[4:1],4,3h[4:1],2,{4}1q5[8:1]*V35[8:1],1,
{8}4h[4:1],5,6h[4:1],7,8,1,{16}6,3,5,4,
{8}5h[4:1],4,3h[4:1],2,1-5[8:1]*z5[8:1],8,{4}1,
{8}4/Ch[4:3],4,3,3,2,2,1,1,
4,3,2h[4:1],1,8v5[8:1]*v3[8:1],7,{4}8,
6pp4[8:3]/2>5[8:1],6/2,{16}4,,,2,{8}6,4,
{4}3qq5[8:3]/7<4[8:1],3/7,{16}5,,,7,{8}3,5,
6<8[8:1]/2q4[8:3],5,{4}6/2,{16}7,,,6,{8}3,4,
3>1[8:1]/7p5[8:3],4,{4}3/7,{16}2,,,3,{8}6,C,
5>2[8:1],6,{16}5,7,,8,,2,7,2,6,2,{8}5,
4<7[8:1],3,{16}4,2,,1,,7,2,7,3>1[8:1],7,{8}4<6[8:1],
3,4,2,{16}7,7,8,8,1,1,{8}7/2,6/3,
5,6,7h[4:1],8,1v4[8:1]*v6[8:1],2,{4}1,
{8}1pp5[8:3]/7-4[8:1],8,{4}7/1,{16}5,,,7,{8}3,5,
8qq4[8:3]/2-5[8:1],1,{4}2/8,{16}4,,,2,{8}5>3[8:1],5<7[8:1],
5-2[8:1],5-8[8:1],5,5,{16}1,2,3,4,6,2,8,4,
{8}5h[4:1],4,3h[4:1],2,1>7[4:1],7,{4}1/8-4[8:1],
{16}8x,,,5/3,,,{8}2/6,1x-5[8:1],8/2,{4}1/7-3[8:1],
{16}7x,,,4/2,,,{8}3/5,2x-6[8:1],3/1,{4}2,
{8}3x-8[8:1],4,3,{16}4,5,,5,,5,{8}4,7,
6x-1[8:1],5,6,{16}5,4,,4,,4,{8}5,2,
8x/1x,6/5,1x/8x,4/3,{16}5x,5x,5x,5x,4x,4x,4x,4x,
{8}5h[4:1],4,3h[4:1],2,1v3[8:1]*v7[8:1],8,{4}1,
{8}1-4[8:1],2,{4}1/5-8[8:1],5/2-5[8:1],{8}2/6-1[8:1],7,
6/3-6[8:1],4,3/8-5[8:1],7,{4}8/4-1[8:1],4/7-4[8:1],
{8}7/3-8[8:1],2,3/6-3[8:1],5,{4}6/2-7[8:1],2,
{8}5h[4:1],4,3h[4:1],2,1p4[8:1]*q6[8:1],8,{4}1,
5,5w1[8:1],{8}5,{16},,,,4,4,
{8}4-1[8:1],3,4/5-8[8:1],6,5,2,{4}1-3[8:1],
8x/1b-7[8:1],2x/1b-5[8:1],1b/8x,{8}6b/4b,{16}3b,4b,
{8}3b,2b/1b,{4}7x/8b<5[8:1],2x/8b>3[8:1],{8}6x/8b-5[8:1],7x,
{4}2x/8b-3[8:1],6x/8b-4[8:1],8b/4x,{8}5b/3b,{16}2bx-4[8:1],8bx,
{8}1bx-5[8:1],2b-6[8:1],1b-7[8:1],2b,{4}1b,5,
{8}3b/7b,{16}2bx,8bx,{4}1bx>3b[8:1],7x/1b<7b[8:1],3x/1b-5b[8:1],
1b/6x,4b/6b,{16}2b,1b,{8}2b,4b/3b,6b/5b,
{4}7x/8bv5b[8:1],2x/8bv3b[8:1],6x/8b<5b[8:1],2x/8b>3b[8:1],
6x/8b-4b[8:1],8b,{16}3b,5b,{8}4b,7b/8b,1b/2b,
5b,6b,7b,8b,{16}1b,8b,2b,7b,3b,6b,4b,5b,
{8}4h[4:1],5,6h[4:1],7,8-4[8:1],1,{4}8,
{1}Cf/5-8-3-6-2[1:1],
{8},,,E2,B7,B3,E6,C/4-6-2-8[8:5],
,,,,,,E8,B2,
B6,E4,B3/B7,Ch[8:5],,,,,{4}1>5[4:1],
5<1[4:1],1-5[8:1]*-4[8:1],A1,
{8}8<4[4:1],3,{4}4>8[4:1],8-4[8:1]*-5[8:1],A8,
1>5[4:1],5<1[4:1],1-5[8:1]*-4[8:1],A1,
{8}8h[8:1],6h[8:1],4h[8:1],2,{12}3h,1h,2h,7h,5h,6h,
{8}3,2/5,{16}3,4,,2/5,,1,2,3h[16:5],,1,8,7,
{8}6,7/4,{16}6,5,,7/4,,8,7,6h[16:5],,8,1,2,
{8}3,2/5,{16}3,4,,2/5,,1,2,3h[16:5],,1,8,7,
{8}6,7/4,{16}6,5,,7/4,,8,7,6h[16:5],{32}E1,E2,E3,E4,E5,E6,E7,E8,
{8}1x,3/7,{16}5,4,,2/6,,8,1,2h[16:5],,3,4,5,
{8}6,6/2,{16}4,5,,7/3,,1,8,7h[16:5],,6,5,4,
{8}3,{16}1,2,,6,{8}5,{16}7,8,6,1,5,2,4,3,
{8}Cf,,,,,,,1/3,
4/5,8/6,{16}7,1,,2/8,,4-1[16:1]/5-8[16:1],,,{4}5b/4b,
{8}2b/7v4<8[4:1],1,{16}7,2,,3,,2,1,3,8,4,6,3,
{8}7b/2v5>1[4:1],8,{16}2,7,,6,,7,8,6,1,4,3,5,
{8}6h/2bh,{16}1h,8h,{8}2h,3h/7bh,{16}8h,1h,{8}7h,6h/2bh,3h,
{16}7h,5h[8:1],,6h,{8}4h[8:1],{16}5h,3,,8,2,7h[4:1],,5,4,3,
{8}7/2b-5V31[4:1],8,{16}2,7,,6,,7,8,6,1,5,3,6,
{8}2/7b-4V68[4:1],1,{16}7,2,,3,,2,1,3,8,5,6,4,
{8}3h/7bh,2h,{16}6,4h,5h,3h[8:1],,8,2,6,{8}4h,{16}7h,3h,
{8}6,2/5,{16}4,3,,2/6,,1,7,2h[4:1],,4,5,6,
{8}7b/2>5p1[4:1],8,{16}2,7,,6,,7,8,6,1,5,3,6,
{8}2b/7<4q8[4:1],1,{16}7,2,,3,,2,1,3,8,5,6,4,
{8}7h/3bh,{16}1h,1h,{8}1h,2h/6bh,{16}8h,8h,{8}8h,7h/3bh,4h,
{16}7h,5h[8:1],,8h,{8}4h[8:1],{16}1h,3,,8,2,7h[4:1],,5,4,3,
{8}2b/7-4-8[4:1],1,{16}7,2,,3,,2,1,3,8,4,6,3,
{8}7b/2-5-1[4:1],8,{16}2,7,,6,,7,8,6,1,4,3,5,
{8}2h/6bh,8h,{16}2,5,3h,6h[8:1],,4,7,3,{8}8,2/7,
{16}3,6,5,8,3,4,1,7h[8:1]/2h[8:1],,,{8}3h[8:1]/6h[8:1],{16},1,8,2,
{1}Cf,
E
