&title=飛べないぼくと鳴かない黒猫
&artist=山本真央樹 feat. 常盤ゆう
&first=0.11999998
&des=jsbr
&lv_5=14
&inote_5=(240)
{8},,,{16}8,8,{8}1,6,3,7,
4,1,1,,34,,57,57,
,18,1h[4:1]/8h[4:1],,,,{12}2,5,3,
{8}4,56,,,24,24,{16}5,6,7,8,
{8}1b<5[4:2]/2b,,,,3,,3h[4:4],,
4,,2,,5,,1<5[4:2],,
,,3,,2,,1h[4:2],,
3-6[8:1],,,,1-4[8:1],,,,
5/7h[4:1],,,,3,4,3,2/8>6[4:4],
,,,,A8,,A1,,
A2,,A3,,A4,,A5,,
E7/B6,E3/B2,E1/B8,B4/E5,E6/A6,E2/A2,E8/A8,A4/E4,
1-5[8:1],,1b/8b,,,,6h[8:8],,
5,,7,,4,,8>2-6>4[4:3],,
,,7h[4:3],,,,,,
5-1[8:1],,,,7-4[8:1],,,,
2h[4:3]/3bpp6[8:5],,,,,,,,
1,24,,,7,6h[8:3]/4,,,
7h[4:1],,8h[4:1],,1h[4:1],,2h[4:1],,
4qq1[8:5],,,,8-5[8:1],,,,
2h[8:5]/4,,3,3,,1qq5[8:6],,,
,,4,,2,2,,,
5<8[4:2]/8q5[4:2],,,,,,,,
7,4,6,3,5,2,4,,
2<7[4:2]/3,,4,,5,,6h[4:1],,
7>2[4:2],,6,,5,,4,,
3q7[4:2]/2q6[4:2],,,,,,,,
1q5[4:2]/8q4[4:2],,,,,,,,
7h[8:7]/3,,5,,6,6,,1pp4[8:4],
,,6,,7,,8,,
1V75[4:2]/4V28[4:2],,,,,,,,
14,,25,,36,,8,8h[8:13],
6pp2pp8[4:9],,,,,,,,
,,,,,,,,
5h[4:3],,,,,,,,
3,3,5,5,4,8<3p5[4:4],,,
2b,,,,,,1,1,
,,4h[4:1],,2,3V17-4[8:6]/5,,,
6h[4:4],,,,,,,,
2,2,6,3,8,4,1<4[8:6],,
4,,3,,2,,1p4[4:3],,
5,,6,,7,,8,,
1s5[4:2]/4>1[4:2],,,,,,,,
8z4[4:2]/5<8[4:2],,,,,,,,
2b>6q4[4:3]/Cf,,,,6,,,,
8,8h[8:7],,,5,,2,,
6V82-5[4:3],,,,5,,6,,
A7,,A8/D1,,D2/E2/A2f,,A3/A4/E4f/D4,,
8h[4:2]/5<7q1>3[4:3],,,,,,,,
5<1[8:3],,,,4,4,,2-6[8:2]/3-5[4:1],
,,,,B4,B5,E2,E8,
,34,3h[4:1]/4,,E6/A6,A2/E2,E8/A8,E4/A4,
1b<5[8:4],,5,5,,2,,4h[8:9]/1,
,,7,,2,,6,,
3,,,,7,7,4,4h[4:4],
,1,,6,,2,,{32}1b,8,7,6,
{8}5,,,,4/2V84[8:3],,5,5,
,,B5,E2,E7,E4,,,
8,,7/3h[8:1],7,,2,5,2qq5[8:4],,4,4,,6,,7,,
8h[4:4]/5-3-6-2-7-1[8:6],,,,,,,,
,,6,6,45,2,4,,
3/8-2-7-3-6-4[4:5],,,2b,,5b,,1b,
,,,,,,3,3,
2/8-5<6-3[4:2],,2,,2,,2,,
4-7<6-1[4:2]/3,,3,,3,,4,4,
8h[4:3],,6,6,,2,2,,
1h[8:3],,3,3,,7,7h[4:3],,
{24}2b,E3,B3,B4,B5,B6,B7,B8,B1,B2,B3,E4,{16}A4,5,6,7,8,1,2,3,
{8}4-6-8-2-4q5[4:6]/5h[4:2],,,,,,6h[4:2],,
,,,,A8f,,,,
8,8,5,5,4,4,2,2,
7-4<5-1[4:2]/3,,3,,3,,3,,
2/8<4[8:3],,2,,2,,1,1,
3,,8,86,,3,4,3,
2h[4:1]/8<5[8:1],,,,8p4[8:1]/6h[4:1],,,,
{24}7b/1h[4:2],E7,B6,B5,B4,B3,B2,B1,B8,B7,B6,E6,{16}A5,4,3,2,1,8,7,6,
{8}5-3-1-7-5p4[4:6]/4h[4:2],,,,,,4,,
,,3,,2,,1,,
78,,6,6,5,6,,,
2/8,,8<5[4:1],,2,,1,,
6/8,,8-4[4:1],,7,,8,,
3/1,,1<6[4:1],,3,,2,,
1/7,,7-3[4:1],,3,,5h[4:1],,
2b<4[8:5],,5,,3,,1,,
7b>5[8:4],,4,,6,,8,,
2qq6[8:5]/5p3[8:5],,,,,,,,
B4/E5,E1/B8,E3/B2,E7/B6,A1/B1,A5/B5,A3/B3,A7/B7,
2bq4[4:3],,,,,,,8h[8:7],
,,,,5,,1,,
{12}2,1,2,8,7,6,2,4,2,5,6,7,
{8}1h[4:1]/8h[4:1],,,,2b-5[8:1]/7h[4:1],,,,
6h[4:1],,,,2>8[4:2],,,5h[8:3],,,,,1,,{12}6,5,6,
4,3,2,6,8,6,1,2,3,6,5,6,
5-1[8:1],,,,,,7,8,7,2,3,4,
7b-4[8:1],,,,,,2b-8[8:1],,,{8},5b-1[8:1],
{12},,,2,3,4,7,5,7,4,3,2,
7,8,7,1,2,3,6,7,8,12,,,
34,,6,5,,,78,,2,,6,5,
7b-4[8:1],,,4,,,1,,,{8}2,2>5[8:5]/1<6[8:5],
{12},,,,,,,,,,,,
{8}4b/7b,,3,3,2,2,1,1,
8-4[8:1],,3,2,16,,,,
28,,3>8[4:1],3,4,,5h[4:1],,
7q4[4:1],,5,,6,,7,,
58,,1<6[4:1],1,4,,3h[4:1],,
5q2[4:1],,3,3,4,,4h[4:1],,
2b-5<8-4[4:3],,4,,3,,1,,
7b-4>1-5[4:3],,4,,6,,8,,
{4}8b<4[4:1],4q8[4:1],8,1h[4:1],2h[4:1],3h[4:1],
4q8[4:1],8<4[4:1],4,3h[4:1],2h[4:1],1h[4:1],
8z4[4:1],4,1,2b>7p1p2[4:12]/7b<2q8q7[4:12],
{1},,,
E
