&title=L9
&artist=paraoka
&first=0
&des=Rlnneko vs. KorinE_
&lv_6=14
&inote_6=(256)
{4},,,,
{4},,,,
{4}7/8-4[8:1],18,{8}2,2,5-1[8:1],,6,7,,6,
{4}4-8[8:1]/5,34,{8}1,1,{16}6,5,2,3,7,6,1,2,8b,,,,
{4}2/1-5[8:1],81,{8}7,7,4-8[8:1],,3,2,,3,
{4}5-1[8:1]/4,65,{8}8,8,1,7,2,6,3,5,
{4}4-8[8:1],54,{8}6,6,1-5[8:1],,2,3,,2,
{4}8-4[8:1]/1,78,{8}5,5,{16}3,4,7,6,2,3,8,7,1b,,,,
{4}6/5-1[8:1],45,{8}3,3,8-4[8:1],,7,6,,7,
{4}1-5[8:1]/8,21,{8}4,4,5,3,6,2,7,1,
{4}8>4[4:1],7,6,{8}5-1[8:1],,4,3-7[8:1],,2,
{4}1<5[4:1],2,3,{8}4,4-8[8:1],5,4,,7,
{4}6<2[4:1],3,4,{8}5-1[8:1],,5,8b,,7,
{4}26,37,{8}4,4,7,8,6,1,5,2,
{4}4<8[4:1],3,2,{8}1-5[8:1],,8,7-3[8:1],,6,
{4}5>1[4:1],6,7,{8}8,8-4[8:1],1,8,,3,
{4}2>6[4:1],7,8,{8}1-5[8:1],,1,4b,,3,
{4}6b/2,7b/3,4/8b,1/5b,4b/8,3b/7,
{4}2b/6,{8}8,1,{4}7h[4:3],5,3,1h[4:1],4h[4:1],6h[4:1],8h[4:2],2h[4:2],,,
{4}5b/3,{8}2,1,3h[4:1],,7,1,7,2,7,3,
{8}6b,1,6,2,6,3,6b,2,6,3,6,4,7b,5,7,4,7,3,7b,4,7,3,7,2,
{8}8b,1,6,1b,5,5,1b,8,3,8b,4,4,
{4}6b,7,8,12,34,5qq2[8:5]/6pp1[8:5],,,
{8},,,38,,47,,56,5b>2[6:1]/6b<1[6:1],,,,,,{4}18,27,36,
(226)
{4}5h[128:208]/4b,
(201)
{4}6b,
(176)
{4}7b,
(160)
{4}8b,
(135)
{4}1b,
(108)
{4}2b,
(252)
{8}3b,4,3,5,3,6,3,5,3,6,3,7,4,6,4,7,4,8,5,7,5,8,5,1,
{4}5b/7b,2v5[8:1]/4v7[8:1],,1b/8b,3v8[8:1]/6v1[8:1],,
{8}5b,4,6,3,7,2,8,8,1,1,2b/7b,,
{8}
56,56,7-4[8:1]/8-3[8:1],,7b/8b,,1,8,,12,,6,4,5,4,5,
34,34,1-6[8:1]/2-5[8:1],,1b/2b,,7,8,,67,,3,5,4,5,4,
56,56,7-4[8:1]/8-3[8:1],,7b/8b,,5,4,,56,,7,1,8,1,8,
12,12,3-1[8:1]/4-6[8:1],,34,,7,8,5,4,6,3,8,1,7,2,
43,43,2-5[8:1]/1-6[8:1],,2b/1b,,8,1,,87,,3,5,4,5,4,
65,65,8-3[8:1]/7-4[8:1],,8b/7b,,2,1,,32,,6,4,5,4,5,
43,43,2-5[8:1]/1-6[8:1],,2b/1b,,4,5,,43,,2,8,1,8,1,
87,87,6<8[8:1]/5>3[8:1],,65,,2,1,3,8,4,7,1,6,2,5,
{8}
3b,4,3,3,5,3,3,6,3,7,2,8,1,8,2,8,1b,7,1,1,6,1,1,5,1/5b,,1,1/8b,,1,1/4b,,
6b,5,6,6,4,6,6,3,6,2,7,1,8,1,7,1,,1-5[8:1],,,4-8[8:1],,,1-5[8:1],,,6-2[8:1],,,4,,,
8b,1,8,3,1,3,6,1,4,1,5,3,6,4,7b,8,7,2,8,2,5,8,3,8,4,2,5,3,
6b,5,7,3,4,2,7b,6,8,2,3,1,7b,6,5,4,3,2,1b/7,17,17,8b/2,28,28,
3b,1,3,3,8,3,3,7,3,6,3,5,4,5,3,5,4b,6,4,4,7,4,4,8,4/8b,,4,4/5b,,4,1b/4,,
6b,8,6,6,1,6,6,2,6,3,6,4,5,4,6,4,,4-8[8:1],,,1-5[8:1],,,4-8[8:1],,,7-3[8:1],,,1,,,
{4}1b-4[8:1]/4b-8[8:1],,,,{8}48,,37,,26,,1b-5[8:1]/5b-8[8:1],,,,,,,,,58,,47,,36,
25,3,4,3,47,6,5,6,25,3,5,3,47,6,3,6,15,2,4,3,48,7,5,6,
1,3,1,5,7,5,1,3,2,4,3,5,4,6,2,2,8,6,8,4,2,4,8,6,7,5,6,4,5,3,{24}4,3,2,1,8,7,
{8}
6b/2,5,4,5,3/6b,5,4,6,3/7b,6,5,6,4/7b,6,5,7,4/8b,7,1,7,2b,6,2,6,3b/5,4,4,4,4,6,5,6,
7b,7,8,7,7,1,6,2,5b,5,3,5,5,4,6,3,
7,7,8,8,1,1,2,2,35,35,35,35,46,46,46,46,
3b/7,4,5,4,6/3b,4,5,3,6/2b,3,4,3,5/2b,3,4,2,5/1b,2,8,2,7b,3,7,3,6b/4,5,5,5,5,3,4,3,
3b,3,4,3,3,5,2,6,1b,1,7,1,1,8,2,7,
3,3,5,5,7,7,1,1,28,28,28,28,17,17,17,17,
{4}6-1[8:1]/8,6b/4-7[8:1],2-5[8:1]/4b,2b/8,
{8}6,6,4,4,5,5,3,3,
{4}4-8[8:1]/2,4b/1-5[8:1],1b/7-3[8:1],2/7b,
{8}1,1,8,8,2,2,7,7,
{4}3-6[8:1]/6,3b/5-8[8:1],1-4[8:1]/5b,1b/7-2[8:1],3-8[8:1]/7b,3b/5-2[8:1],1-6[8:1]/5b,1b/7-4[8:1],3/7b,
2b-7[8:1]/6b-3[8:1],2b/6b,1b/5b,
{8}6b,5,6,4,6,3,6b,4,6,3,6,2,5b,3,5,2,5,1,4b,2,4,1,4,8,
{4}4b/2b,7v4[8:1]/5v2[8:1],,8b/1b,6v1[8:1]/3v8[8:1],,
{8}4b,5,3,6,2,7,18,18,12,12,8b/3b,,
56,56,8-5[8:1]/1,,2b/8b,,34,34,1/2q4[16:3],,2b/8b,,7,1>4[8:1]/8<5[8:1],,1b/8b,
