&title=Never the Fever!!
&artist=佐咲紗花
&first=0.03
&des=阿抹AIMO
&wholebpm=172
&first_4=
&first_5=0
&lv_5=12
&inote_4=
&inote_5=(172)
{1},
{16}3,6,4,5,{1}2-6[1:1]/7,
{4},,{16}57,,,24,,,18,,{2}2/7<4[8:3],{4},
{24}4,5,6,7,8,1,{2}2-6[8:1]/3,
{4}1b>4[8:1]*<6[8:1],1b,
{4}2bpp6[1:1]/8b,8,8,8,8,{8}8,7,{16}5/7b,,,2/4b,,,1b/8,,
{4}2/7bqq3[2:1],2,2,2-6[8:1],{2}2/4h[2:1],
{16}6,7,8,1,2,3,4,5,{4}8b<5[8:1],83,
{16}1h[16:3],,,2h[16:3],,,{8}3-8[8:1],,7,6,5,,{16}2,4,3,,2,,
{4}1>4[8:1]/5,1/6h[4:1],{8},1,7,8<5[8:1],,1,2,3,4>1[8:1],5,6,7,
{4}8<5[8:1],83,{16}2h[8:1]/4h[8:1],,,24,,,{8}1q4[8:3]/5,,15,6,7,8,57,
{4}2/8qq8[16:5],28,1pp1[16:5],17,8,{16}18,7,6,5,2,3,4,5,7,6,5,4,8,1,2,3,
{4}4/8v6[3:1],3,{8}3,4,6,4h[8:2]/6pp5[2:1],,,4,,3h[8:2],,,,
{4}4qq4[8:3]/5,5,{8}6,7,7,5/6h[4:1],,2,2,34,4,53,62,17,
{4}8-4[8:1],81,{16}25,,6,4,,,{4}3/7<4[4:1],{8}4,3,2,1,28,
{8}3qq8[8:5]/7qq4[8:5],37,{2},{4},
{8}15,3b/7b,,28,37,46,17,26,35,,
{16}4,5,4,5,3,6,3,6,4,5,4,5,3,6,3,6,4,5,4,5,3,4,3,4,{8}25,34,18,27,
{16}6,3,6,3,5,4,5,4,6,3,6,3,5,4,5,4,6,3,6,3,5,2,5,2,{8}34,56,78,12,
{4}8bw4[8:1]/3,8,{16}7h[8:1]/5b,,,4h[8:1]/6b,,,5h[8:5]/3b,,,,{8}3,4,6,
{8}7,8,1-6[8:1],,1/7b>2[8:1],,,,{16}3/4b,,,6/5b,,,
{16}2b<7[8:1]/7b,,,,{24}6,5,4,{8}3,4,1/5h[8:1],2,3/6h[8:1],2,
{16}3h[8:1]/5h[8:1],,,35,,,{8}4-8[8:1]/6,,2h[64:1],2h[64:1],,
{8}45,{16}6,5,7,,{8}8,56,4,34,5,
{16}6h[8:1]/4h[8:1],,,64,,,{8}5-1[8:1]/3,,6h[64:1],6h[64:1],,
{4}7-3[8:1],7/8-4[8:1],1-5[8:1]/8,18,
{16}2h[8:1]/8h[8:1],,,3h[8:1]/7h[8:1],,,{8}4-8[8:1]/6,,1h[64:1],1h[64:1],,
{16}57,,,46,,,35,,3/5b,,,2b/8,,,{8}5b<1[16:3]/7,,3,3,,
{16}6/4b,,,7b/1,,,{8}4b>8[16:3]/2,,6,6,,
{16}2b/8b,,,4b/6b,,,1b/7b<4[4:1],,{4},2,3,4,{8}5,5,1,1,{16}6,2,7,3,8,4,7,3,
{16}8b<5[8:1],,,1,1,,2,,2>5[8:1],,,1,1,,8,,
{16}7<4[8:1],,,8,8,,1,,1h[16:3],,,8,1b/8b,,2b/7b,,
{16}3b/6b<1[8:1],,,5,5,,4,,4>1[8:1],,,5,5,,6,,
{16}6<1[8:1],,,5,5,,4,,4>1[8:1],,,5,5,,6,,
{8}1b/8b,1b-5[8:1]/8b-4[8:1],2b/7b,1b>7[8:3]/8b,,,8,8,
{16}8h[16:3],,,6h[16:3],,,1h[8:1],,2h[16:3],,,4h[16:3],,,3,,
{4}3h[8:1]/7h[8:1],4/5h[4:1],8>4[8:1],8/6qq1[8:3],5>1[8:1]/6,,
{8},28,28,37,
{4}4-8[8:1]/6h[4:5],4,1-3[8:1],1,4-8[8:1],4,{8}1-3[8:1]/5-7[8:1],15,15,,
{4}8-6[8:1]/3h[4:5],8,5-1[8:1],5,8-6[8:1],8,{8}5-1[8:1]/2,25,25,3,
{2}8b-4[8:1]/4b-1[8:1],{16}2b/5b,,,4b/7b,,,1b/8b,,
{2}3b-7[8:1]/6b-3[8:1],{16}2b/8b,,,4b/6b,,,2b/8b,,
{8}3b/7b,5,2h[8:1],4,8h[8:1],6,1h[8:1],3,7h[8:1],5,2h[8:1],4,{16}8,1,7,2,6,3,7,2,
{4}1/8-5[8:1],8/2-7[8:1],2/6-3[8:1],4-1[8:1]/6,
{4}4/7>2[8:1],7/3v6[8:1],3/8<5[8:1],4/8,
{16}2-4[8:1],,,1,2,,8,,7-5[8:1],,,8,7,,1,,
{16}2-4[8:1],,,1,2,,8,,{4}3b-8[8:1]/7b-4[8:1],3b/7b,
{1}2bpp5[8:3]/6bpp1[8:3],,E
