&title=sahur inchaos tiamat lanlao
&artist=chaosmdgogogo
&first=0
&des=林微awa
&des_5=
&des_7=林萎
&lv_5=1
&lv_7=乐
&inote_5=(90){4},,,,4,
4,{1},,,,{2},(180){1},
,,,(90),
,,(180),
,,,,,(90),
,,,,,,{4},(180),
{1},,,{2},(90){1},
,,,,,,{2},(180),
{1},,,,,,,,,,,,,,,,,,,,,,,,{4},(90),
{1},,,,,{4},,,(180),
{1},,,,,,,,,,{4},(90),
{1},,,,,,,,{2},(180),
{1},,,,,,,,,,,,,,,{2},(90),
,(180),
{1},,,,,,,,,,,,,,,,,,,{4},(90),
(180){2},
{1},,,{2},(90),
{1},,,,,,{4},,,{8},(180),
&inote_7=(90){4},{1},{8},{16}1x-4[16:7],
8x-5[8:3],{32}1x-5[16:5],8x-4[32:9],{64},1x-6[64:15],{32},8x-3[16:3],1xs5[64:7],{64},8xs4[64:7],{32},{16}1x,8x,1x,8x,
{64}8b/A8f/D8f/D1f,7/1/A7f/D7f/B7f/E7f/E8f/E1f/B1f/A1f/B8f/D2f/E2f,2/6/A6f/B6f/E6f/D6f/Cf/B2f/B5f/A2f,3/5/A5f/E5f/D5f/B4f/B3f/E3f/D3f,{16}4b/E4f/A4f/D4f/A3f,,6/2>5[8:1],{8}6/2,{16}8,8h[16:3],{8},{16}6,5,7,6,{8}5/3,
{16}2/4,3,4,5,,6/4,5,6,{8}7h[16:7],{16}B6,B7,B8,B1,B2,B3,
,5,,3/7<4[8:1],{8}3/7,{16}1,1h[8:1],{8},{16}3,4,5>2[8:1],6/4,,7,
5,6,5,4,,3/5,4,3,{8}6xs2[16:1]/2x-6b[16:1],{16}B4/A4,A8/B8,{4}Cf,
(180)1-7[8:1],1-6[8:1]*-5[8:1],1-3[8:1],7/1-4[8:1]*-5[8:1],
1-7[8:1],3/1>2-4<5[8:1]*<8-6>5[8:1],1,7/3,
8-2[8:1],8-3[8:1]*-4[8:1],8-6[8:1],2/8-5[8:1]*-4[8:1],
8-2[8:1],6/8<7-5>4[8:1]*>1-3<4[8:1],8,6b/4b,
(90){16}5/3,2,4/6,7,4/3,1,5/6,8,5/3,1,4/6,8,2pp4[16:1],8qq6[16:1],1s5[16:1],7,
2,8,1,7,{32}3,3,4,2,6,6,5,7,{48}3,2,1,8,7,6,3,2,1,8,7,6,3>1qq4<7pp4>2[16:13],2,1,8,7,6,3,2,1,8,7,6,
{8}3b/5bxh[8:7],{4},,,{8}1b,
(180)3b>8[8:1]/7b<4[8:1],7/3,{4}7/3-7[8:1],3/1V35[8:1],1/8-4[8:1],
8/2-5[8:1],7z3b[4:1],3-6b[8:1],1x,
{8}2b-5[8:1],2,{4}2/4V68[8:1],4/3-7[8:1],3/8x-2[8:1],
8/4>1[8:1],4/7-4[8:1],7/2,6/1,
{8}8bh[16:1]/7bh[16:1],4bh[16:1]/3bh[16:1],8b-4b[8:1]/7b-3b[8:1],6bh[16:1]/5bh[16:1],{4}8bh[16:1]/7bh[16:1],{8}1bh[16:1]/2bh[16:1],5bh[16:1]/6bh[16:1],
1b-5b[8:1]/2b-6b[8:1],3bh[16:1]/4bh[16:1],{4}2b>5b[8:1]/1b<6b[8:1],1b/2b,4/7,
(90){8}1/7-1[16:1],B6,5-7[16:1],B4,3-5[16:1],B2,1-3[16:1],B8,
1/7-3[16:1],E7/E4,7/1-5[16:1],E8/E3,1/5w1[16:1],A7/A3,5,6b/4b,
{16}5/3,2,4/6,7,4/3,1,5/6,8,5/3,1,4/6,8,2xpp4b[16:1],8xqq6b[16:1],1xs5b[16:1],7,
2,8,1,7,{32}3,3,4,2,6,6,5,7,{48}3,2,1,8,7,6,3,2,1,8,7,6,3pp6>7pp2[16:13],2,1,8,7,6,3,2,1,8,7,6,
{8}3b/5bxh[8:7],{4},,,{8}1b,
{16}2/4,3,4,5/3q5[4:1],,6,5,3,{4}8h[16:3],{16}8/6,7,5h[16:1],6,
{8}3-1[16:1]/4-8[16:1],8/1-5[16:1],4/3,5<3[16:3],8>3[16:1],{16}4,5,6,7,{8}8z4b[16:1],
2h[16:1]/6h[16:1],{64}4,5,6,7,{16}8,(180)7-4[16:1],7,{8}6/8,7,{16}2,2,1,1,{8}2/8-5[16:1],
2/1,8/1,{16}3-8[16:1],3,{8}4/5,5,{16}7,7,1,1,{8}2/8,
{16}1,1,6,6,2-5[16:1],2,{8}3/1,2/1,{16}7,7,8,8,{8}7/1-4[16:1],
7/8,1,{16}7,7,8,8,{8}7/1,{16}2,2,{8}1z5b[8:1],2/8,
(90),{16}3h[16:1],7h[16:1],{8}5h[8:3],B3/A3,A7/B7,{16}1h[16:1],3,4,6h[16:5],{8}A8/B8,
B4/A4,{16}3<6[16:1],7/2,{8}1/8,3/6,5s1b[16:1]/4z8b[16:1],2>4[16:1]/7<5[16:1],,7x/2x,
1h[16:1]/8h[16:1],{48}2b/7bp4[16:3],1b,8b,7b,{24},{16}6/5,3,{8}1h[16:3],,{16}1/3,4h[8:1],{8}3h[16:1],6-8[16:1]/5-1[16:1],
1/8-4[16:1],5/6,4>6[16:3],1<6[16:1],{16}5,4,3,2,{8}1p5[16:1]*q5[16:1],7h[16:1]/3h[16:1],
,{16}8h[16:1],6h[16:1],{8}4h[8:3],B6/A6,B2/A2,{16}8h[16:1],7h[16:1],6h[16:1],5h[16:5],{8}B7/A7,
B3/A3,{16}1>3[16:1]*<6[16:1],8,{8}7/2,A7/B7,B3/A3,{16}1>3[16:1]*<6[16:1],8,{8}7/2,A7/B7,
B3/A3,{16}1>3[16:1]*<6[16:1],8,{8}7/2,A7/B7,B3/A3,{16}1>3[16:1]*<6[16:1],8,{8}7/2,1>3[16:1]*<6[16:1],
,1>3[16:1]*<6[16:1],,1,(180){4}1,{8}8b,8b,
8b,8b,{4}2h[2:1],4,7h[2:1],
5,2h[2:1],4,8-6[8:1]*-4[8:1],
,5h[2:1],6,4h[2:1],
3,5h[2:1],6,4h[2:1],
3,5h[4:1],6h[4:1],7h[4:1],
8h[4:1],1>8[2:1],,1b,
,7-4[8:1],{8}7/8,1,{4}2-5[8:1],
{8}2/1,8,{4}7-3[8:1],{8}7/8,1,{4}2-6[8:1],
{8}2/1,8,{4}7-5[8:1],7-1[8:1]/2-4[8:1],7-4[8:1],
7,2-4[8:1],2-8[8:1]/7-5[8:1],2-5[8:1],
2,{8}6/4,6/4,3/5,5/3,4/2,4/2,
1/3,1/3,6/4,4/6,5/7,5/7,8/6,8/6,
7/1,7/1,{16}4,5,4,5,4,5,4,5,3,6,3,6,
3,6,3,6,2,7,2,7,2,7,2,7,{32}1h[32:1],2h[32:1],3h[32:1],4h[32:1],5h[32:1],6h[32:1],7h[32:1],8h[32:1],
1h[32:1],2h[32:1],3h[32:1],4h[32:1],5h[32:1],6h[32:1],7h[32:1],8h[32:1],{4}1bw5[4:3],{1},{4},5s1[8:1]/4z8[8:1],
,{32}8b/1b,7,6,5,4,3,2,1,8/2,7,6,5,4,3,2,1,8/3,7,6,5,4,3,2,1,
8/4,7,6,5,4,3,2,1,{4}5/8s4[8:1],{8}8/1-5>4b[4:1],2,{4}1/8-6[8:1]*v6[8:1],
8b,{32}1b/5h[8:9],E2,B2,B3,{8}E4,,{32}1b,E1,B8,B7,{8}E7,{32}1b,E2,B2,B3,
{8}E4,{32}1b,E1,B8,B7,{4}E7,{8}1/2,3,4/6,7,
{4}8/1,{32}8b/1b,2,3,4,5,6,7,8,1/7,2,3,4,5,6,7,8,1/6,2,3,4,5,6,7,8,
1/5,2,3,4,5,6,7,8,{4}4/1s5[8:1],{8}1/8-5>4b[4:1],7,{4}8/1-4[8:1]*>4[8:1],
1b,{32}8b/4h[8:7],E8,B7,B6,{8}E6,,{32}8b,E1,B1,B2,{8}E3,{32}8b,E8,B7,B6,
{8}E6,{32}8b,1,2,3,8b,7,{16}6,,{32}2b,3,{8}4,{32}6b,5,{16}4,{32}2b,1,{16}8,,{32}6b,7,
,8,{16},{32}4b,3,{16}2,(90)2x/6,{32}3x,3,{16}4x,2/5x,6/4x,{32}7,7,{16}8,1/6x,5/3,{32}2,2,{16}1>6[32:3],6/5,
{32}7,7,8,6,{8}1b,{16}7pp1[16:1],7,,6/5V74[16:1],{8}7/4,{16}4/3,5/2h[16:3],{8},{16}4>1>2[16:1],3,
6/5,7,{8}8b/4,{16}3/7x,{32}6x,6,{16}5x,7/4x,3/5x,{32}2,2,{16}1,8/3x,4/6,{32}7,7,{16}8V64[32:3],4/3,
{32}2,2,1,3,{8}8,{16}3bh[16:3]/2bz6[16:1],{8},{16}1,{8}2/5<6<7>8[16:1],{16}3/4,2>5[16:1],{8}1/5,{16}7>2<7[8:1],2/6,
,5/4,{8}E5,4-8[16:9],2/6,4/8,{32}5,6,{16}7,{32}4-8b[16:1],3,{16}2,{8}4h[8:1],
{64}Cf,B1f,B8f,B7f,B6f,B5f,B4f,B3f,B2f,A1f,A8f,A7f,A6f,A5f,A4f,A3f,{16}6/2x,{32}3,3,{16}4h[16:1],1,7/3,{32}6,6,{16}5h[16:1],8,{32}1/7,2,3,4,2/5,3,4,5,
3/6<4-2-8-6-4[4:7],4,5,6,{16}7b/3b,8,(180){8}7/1-5[8:1]*-5[8:1],2,1/8-4[8:1]*-4[8:1],7,{4}8/1q5[8:1]*q5[8:1],
{8}1/8p4[8:1]*p4[8:1],{16}7,7,{8}8/1-5[8:1]*-5[8:1],2,{4}1/8,4,
{8}1/8-4[8:1]*-4[8:1],{16}7,7,{8}8/1-5[8:1]*-5[8:1],2,1/8p4[8:1]*p4[8:1],7,{4}8/1q5[8:1]*q5[8:1],
{8}1/8-4[8:1]*-4[8:1],{16}7,7,{8}8/1>4[4:1]*>4[4:1],2,{2}1/6,
{4},{8}2,2h[4:1],,4,{4}4h[8:5],
,{8},3h[4:1],,5,4,4,
{4}3/5,{8}7,7h[4:1],,5,{4}5h[8:5],
{24}E6,E7,E8,E1,E2,E3,{8}E4,6h[4:1],,4,{16}5b,5b,{8}5b,
{16}4b,6b,{8}4b,{4}1b,1b,1b,
1b,{8}2b/8b,3b,4b/5b,6b,7b/1b,2b,
3b/5b,6b/4b,{16}5,7,4,6,3,5,2,4,(90){48}1-5[16:1],2,3,8,7,6,3,4,2,6,5,7,
1bx/8b,B1f,Cf,B5f,{6},{64}1b/8b,7/2,3/6,5h[64:3]/4h[64:3],,,,6/3,7/2,8h[32:1]/1h[32:1],{32},{16}Cf,3bh[8:1]/E5f,6,7,4bh[8:1]/E6f,7,8,5bh[8:1]/E7f,8v5<1[16:1],
{8},{16}8,E2,E3,E4,E5,E7/E6,3b,2/4h[8:1],,3b,{8}6/5h[8:1],{16}7,8/1v4[16:1]*v6[16:1],
2b/3,6b/4,,1b,,3/7,7/3,5,6bh[8:1]/E5f,3,2,5bh[8:1]/E4f,2,1,4bh[8:1]/E3f,1v4>2-8[16:1],
{8},{16}1,E8,E7,E6,E5,E4/D3,6b,7/5h[8:1],{8},3/4h[8:1],{16}2,1/8-4[16:1],
7b/5,4/3b,,8b/1b,,6/5,{8}3b/7b,8/2,{16}2/B6,B5,2,E8,2/E7,E6,
{8}3/E5,{16}3/D1,D8,3/D7,D6,{8}3/D5,{16}7/B1,B2,7/B3,B4,7,E2,7/E3,E4,
{8}6/E5,{16}6/D1,D2,6/D3,D4,{8}6/D5,{16}7-4[16:1],4-8[16:1],8-3[16:1],3>5[16:3],{8}7,{16}1x,1xh[8:1],
{8},{16}1,8,1/7,6,5/4,3,2/8,6/5,7/1,3/4,{32}6,6,5,7,3,3,4,2,
{36}5bh[8:1],{72}A3,D3,A2,D2,A1,D1,A8,D8,A7,D7,A6,D6,A5,D5,A4,D4,{16}3x/7x,3x/7x,{8}2b/8b,(180){4}3-8[8:1]/7-4[8:1],7/3,
{8}8/4,1,2/4>1[8:1],7/8<5[8:1],4,8,3,2/6,
{32}1V75[8:1],2,3,4,{8},{4}1,{32}1-3[8:1],{8},{32}8,7,6,{8}1<6[8:1],{32}7,6,{16}5,
{8}1,4,5/3,8/1,7/5,2/1,3/5,7/1,
{32}8V24[8:1],7,6,5,{8},{4}8/6-4[8:1],6/3-7[8:1],3/8-2[8:1],
8/4-6[8:1],4/7-3[8:1],7/2-8[8:1],2/5-1[8:1],
5/3-7[8:1],{8}3/6<1[8:1],5,6/4-7[8:1],3,{4}2/4-1[8:1],
4/8v5[8:1],8/2V46[8:1],2/7-3[8:1],7/8-5[8:1],
8/1,{16}2,3,8,7,{4}6-1[8:1]/2-5[8:1],2/6,
{8}1/5,8,7/5<8[8:1],2/1>4[8:1],5,1,6,7/3,
{32}8V24[8:1],7,6,5,{8},{4}8,{32}8-6[8:1],{8},{32}1,2,3,{8}8>3[8:1],{32}2,3,{16}4,
{8}8,5,4/6,1/8,2/4,7/8,6/4,2/8,
{32}1V75[8:1],2,3,4,{8},{4}1q3[4:1],{8}1/8,8,7,7,
6/4,6,5/4,5,4,4,3/8,3,
2,2,5/3,1/7,4/6,1/8,4/7,2/8,
5/3,7/4,{16}2,1,3,8,4,7,5,6,4,4,5,5,
{32}3,2,1,8,7,6,5,4,3,2,1,8,7,6,5,4,(90){16}7b/3b,3x/7,8,1/6,2/5,3,6/4,3/7-3[16:1],
8-4[16:1],1-5[16:1],2-6[16:1],7bx,8bx,1bx,{8}2bx,(180){32}4/8-3[8:1],7/3,6/2,5/1,{8},8/5,{32}5,6,7,8,
{8}4,5,3/6,2/7,{32}1/8-4[8:1],2/7,3/6,5/4,{8},8/7,{32}6,7,8,1,
{8},2/5,3/6,4/7,6>3[4:1],7,6/3>8[4:1],8,
,4qq5[4:1],,5,8-4[8:1],7,8>3[8:1],1,
8-5[8:1]*-6[8:1],{16}7,7,{8}8,2,1/3-8[8:1],5,3/6,7,
2/6-1[8:1],3,{4}6/4,{8}4/2-5[8:1],8,2/7,6,
3/7-4[8:1],2,{4}7/1,{8}1/2,3/4,5/6,7/8,
6>4[8:1]/1>3[8:1],2/5,{4}1/6,{32}2h[32:1],3,4,5,,1,8,7,1h[32:1],2,3,4,1h[32:1],8,7,6,
{2}5s1[8:1]/3-7[8:1],{32}5/1-6[8:1],2/6,3/7,4/8,{8},1/4,{32}4,3,2,1,
{8}5,4,6/3,7/2,{32}8/1-5[8:1],7/2,6/3,4/5,{8},1/2,{32}3,2,1,8,
{8},7/4,6/3,5/2,3<6[4:1],2,3/6<1[4:1],1,
,5pp4[4:1],,4,1-5[8:1],2,1<6[8:1],8,
1-4[8:1]*-3[8:1],{16}2,2,{8}1,7,8/6-1[8:1],4,6/3,2,
7/3-8[8:1],6,{4}3/5,{8}5/7-4[8:1],1,7/2,3,
6/2-5[8:1],7,{4}2/8,{8}1/8-5[8:1],5/4v1[8:1],8>3[8:1],4<7[8:1],
8z4[8:1],4,8,5,{32}7-3-8[8:1],6,{16}5,{8}3,7/8,1,
{32}2,3,4,5,6,7,8,1,2z6>6>4-8b[1:3],3,4,5,6,7,8,1,{2}2b,
{1},,{2},{4}5,
5,
4,(90){8}2-4[16:1]/6-4[16:1],8,(180){4},{16}7-4[16:1],7,{8}6/8,
7,{16}2,2,1,1,{8}2/8-5[16:1],2/1,8/1,{16}3-8[16:1],3,{8}4/5,
5,{16}7,7,1,1,{8}2/8,{16}1,1,6,6,2-5[16:1],2,{8}3/1,
2/1,{16}7,7,8,8,{8}7/1-4[16:1],7/8,1,{16}7,7,8,8,
{8}7/1,{16}3,3,{8}2-4[8:1]/6-4[8:1],7/1,(90),{16}7,3,{8}5h[8:3],D4,
D7,{16}2,2,4,4h[16:5],{8}D6,D3,{16}5,5,{8}6,3,
5<7b[16:1]/4>2b[16:1],4z8[16:1]/5s1[16:1],,4x/5x,7h[16:1]/2h[16:1],{16}6b/3bV51[16:1],2,1/5,6,{8}7h[8:1],
{16}8xV64[16:1],6,4/8,2/1,{8}8x/3xh[8:3],{16}4x-8[16:1],5,2x-6[16:1],1,4V68-2[8:1],3,2<4[4:1],1,4,8,
4x,3,2,1,8xs4[16:1]*z4[16:1],7/1,{8}2h[16:1]/6h[16:1],,{16}1v6[16:1],3h[16:3],5v2[16:1],C,{8},7h[8:1],
{16}1h[16:1],3h[16:1],4h[16:1],6h[16:5],A8/B8,7,A4/B4,5,2-4<5-7[8:1],8/1,8/1,1/8,{8}2/7<6<7<5<6>4<5>3<4>2[8:1],
Ch[16:1],{16}E3,E4,E6,E7,{32}8b,7,8,7,2,4,3b,4,2,1,2b,1,5,6,5b,7,{48}3b,2,1,8,7b,6,
5/3,2,1b,8,7,6,4b/5b,3,2,1,8,7b,6/4,3,2,1b,8,7b,4,5,4,5,4,5,3b,6,3,6b,3,6,2b,7,2,7b,2,7,1b,8b,1b,8b,1b,8b,(180){64}8b/1b/A8f/D1f/A1f/E1f/D8f/D2f/A7f/B8f/E8f/B1f/A2f/E2f,{192}7b/2b,D7f/A6f/B7f/E7f/B6f/Cf/B2f/D3f/A3f/E3f/B3f,,{96}3b/6b,{192}E6f/B5f/D6f/B4f/E4f/D4f,5b/4b,{96},{16}A5f/E5f/D5f/A4f,
{1}2b/1b/A8f/D8f/A7f/D7f/E8f/B7f/B8f/E7f/E1f/D1f,
