&title=リードコントロール
&artist=なるみや
&first=0
&des=Glowen
&clock_count=4
&lv_5=13+
&inote_5=(130)
{1},
{4}2>4[8:1],5,2-5[8:1],6,
{4}7<5[8:1],4,7-4[8:1],3,
{4}2>5[8:1],6p2[8:1],8-4[8:1],1<6[8:1],
{4}5q1[8:1],4qq1[8:3],8<5[8:1],,
{12}4v7[8:1],,2,4,,,1>4[8:1],,8,1,,,
{4}6<1[8:1],2p6[8:1],5>2[8:1],1q5[8:1],
{4}8bp4[8:1],8/4,{12}2>5[8:1],,5,2,,6v3[8:1],
{12},,6,2,,1,4<7[8:1],,,4/3,,,
{12}8v3[8:1],,1,8,,,2<7[8:1],,4,2,,5,
{12}6v3[8:1],,,2v7[8:1],,,8-4[8:1],,,5-1[8:1],,,
{12}7bp3[8:1],,,7/3,,,1>4[8:1],,4,1,,5v8[8:1],
{12},,5,1,,2,7<4[8:1],,,3/7,,,
{12}2,4,3,8h[12:2],,1,7,4,5,3h[12:2],,6,
{12}2>5[8:1],,5,2,,6,7-4[8:1],,4,7,,3,
{12}2-6[8:1],4,4,2,,7,8-4[8:1],5,5,8,,3,
{12}2-5[8:1],,,2/5-1[8:1],,,7/5-8[8:1],,,3/5,,,
{12}2,8,4,6h[12:2],,1,7,3,5,1h[12:2],,8,
{12}2,6,4,5,3,7,1,8,2,1<6[8:1],,,
{12}1>4[8:1]/3,,,5p1[8:1]/1,,,8>3[8:1]/5,,,8-4[12:1]*-5[12:1]/6,,,
{1}8bw4[12:6],
{12}6h[12:6],,,,,,5,,4,7,,6,2,8,4,37,26,15,8>4[8:1]/4<8[8:1],,,,,,
{12}1p5[8:1]/5p1[8:1],,,1>4[8:1]/5<8[8:1],,,1-6[8:1]/5-2[8:1],,,1/5,,,
{12}1pp3[8:1]/5v7[8:1],,,1/5,,,8qq6[8:1]/4v2[8:1],,,8/4,,,
{12}1>4[4:1],,4,4<7[4:1],,7,7<1[12:3],,8,8-4[8:1],,,
{4}8>3[8:1],7/8<5[8:1],8-4[8:1]/4-8[8:1],,
{12}1q5[8:1]/5q1[8:1],,,1/5,,,{36}4v7[8:1]/8v3[8:1],3/7,2/6,{12}1/5,,4/8,,,
{12}2-4[8:1],,6-1[8:1],2v5[8:1],,6,2,,,4-8[8:1],,,
{12}8b>3[8:1],,,5-1[8:1],,,1b<6[8:1],,,4q8[8:1],,,8v3[8:1],,,1b<3[12:3],,,,,,,,,
{4}2-4[8:1],5,2>5[8:1],5,2-5[8:1],6,2>4[8:1],5,
{4}7-5[8:1],4,7<4[8:1],4,7-4[8:1],3,7<5[8:1],4,
{4}3V15[12:3],8,6V84[12:3],1,
{4}2V48[12:3],5,7V51[12:3],4,
{4}2-4[8:1],2/8,5v7[8:1],5/3,
{4}1v3[8:1],8v6[8:1],4qq4[12:3],,
{1}5b<4[4:7]*pp4[4:3],,
{4}5-1[8:1],1qq3[12:5],8-3[12:2],,
{4}4q5[12:3],5pp3[12:5],6-3[12:2],,
{12}8p2[12:2],,8,7<3[12:2],,7,1w5[8:1],,,1,,,
{12}3p5[12:2],,3,6<2[12:2],,6,4-8[8:1],,4,7p3[12:2],,7,
{12}1-5[8:1]*-4[8:1],,,1bw5[8:1],,,1b,,,{16}8,7,6,5,
{12}3/4-8[8:1],,,2V46[12:2]/4,,,1v7[8:1]*v4[8:1]/2,,,,,,
{4}6h[4:1]/5,4,3h[4:1]/7,6,4/5h[4:1],3,2h[4:1]/6,5,
{16}3/4,,2,,{12}6,4,5,3,5,4,6,4,5,3,4,5,6,5,4,3v6[8:1]/6v3[8:1],,,,,,
{12}4-8[8:1]/5,,,7-3[8:1],,,1q5[8:1]*-5[8:1],,,,,,
{12}6v1[8:1],,,1q5[8:1],,,8V64[12:2],,,,,,
{12}3,,4,3,,5,4,,6,5,,5,6,,4,5,,5,4,,4,6,,6,
{4}3bqq6[12:9],,,,
{1}7q5[4:4]*V53[4:4],,
{4}7V51[12:8]*V51[12:8],8-4[12:2],,3,
{4}2V48[12:8]*V48[12:8],1-5[12:2],,6,
{12}7q4[8:1],,7,1-5[8:1],,1,5<8[4:1],,,8>7[16:8]*p7[16:8],,,
{12},,,,,,,,,7v4[8:1]/2,8,1,
{12}2b/7,,,2-7[8:1]/5,3,4,2/5v8[8:1],,,1-4[8:1]/5,2,7,
{12}1-6[8:1],8,3,1-5[8:1],2,7,1<3[12:3],,,1/4b,,,
{12}2>5[8:1],,1,2/6-3[8:1],,7,6/1<6[8:1],,2,1/5q1[8:1],,4,
{12}5/2bq6[8:1],,3,2/8p4[8:1],,7,8/1b-5[8:1],,,1/5,6,7,
{12}8b-4[8:1]/4,,,4/8,3,2,1/5-8[8:1],,,
{12}5-2[8:1]/3,4,7,
{12}5-1[8:1],6,3,5b<4[12:4],4,7,5b-1[8:1],,,5,,,
{12}8b<5[8:1],,,5v8[8:1],,,1b>4[8:1],,,4v1[8:1],,,
{12}8p4[8:1],,,4b<8[12:3]*>8[12:3],,,,,,,,,
{4}2>4[8:1],2/5,1-4[8:1],1/5,
{4}8q4[8:1],8/6,7q4[8:1],7/5,
{4}6<8[8:1],6/1,5-8[8:1],5/1,
{4}4q8[8:1],4/2,{12}1w5[8:1],,28,,,,
{12},,,3h[12:6],,,7,,6,,,5h[12:3],
{12},,4,3,,2,1h[12:3],,,8,,,
{12}7-3[8:1],,1,7,,,2-6[8:1],,4,2,,,
{4}5v8[8:1],8z4[12:2],
