&title=急性恋愛中毒
&artist=ぴーなた feat.重音テト
&first=-0.389
&des=FANdoraxxx
&des_5=FANdoraxxx
&lv_5=13
&inote_5=(138){4},6xq6b[2:1]/2xp2b[2:1],,,,4/3h[4:1],
2,{24}5/6h[24:5],,,,,7,
,,,{8}4,5,6,7h[8:1],1x<6[8:1],{4}5,
,8/7h[4:1],6,{24}1/2h[24:5],,,,,3,
,,,{8}8,1,2,3h[8:1],5x>2[8:1],{4}1,
{16},,1x-6[8:1],2,{8}3,1x/5xh[12:1],{16},,4x-7[8:1],3,{8}2,4x/8xh[12:1],
,7,6/1,3/4,5/7,8/1,2-6[16:1],1h[12:1],
{16},,8x-3[8:1],7,{8}6,8x/4xh[12:1],{16},,5x-2[8:1],6,{8}7,5x/1xh[12:1],
,1,8,2,{16}3h[16:1],4,,8h[16:3],,,{8}7,
5-8b[16:1]*-2b[16:1],4/6,{4}5b,{8}8x,{24}7,,8,{8}6x,2/1,
4x,{24}6,,5,{4}8x,{8}1x,{24}2,,1,{8}3x,6/8,
5,{24}3,,4,{4}1x,{8}8x,{24}7,,8,{8}6x,3/5,
4x,{24}6,,5,{8}8x,4h[8:1],5h[8:1],6h[8:1],7h[8:1],8h[8:1],
1h[8:1],3h[8:1],{4}1b,{8}1x,{24}2,,1,{8}3x,7/8,
5x,{24}3,,4,{4}1x,5/6h[12:1],{8}4/3h[8:1],2,
1h[4:5],5h[4:5],,,,,,,,,,,1x-6[8:1],
5x>8b[4:1],{4}1b,
{8},,7/8-3[8:1],4,8-5[8:1],6,{4}8-4[8:1]*-3[8:1],
8,{8}7v4[32:3],7,2-5[32:3],2,{16}1,1h[16:3],,,{8}4w8[8:1],
8x,{4}4b,{32}B3/B8,B4,B5,E6,,,,,B6/B1,B5,B4,E4,,,,,{4}4xh[8:1]/8xh[8:1],
{8}6,2/4,3,7/5,{16}4x/8xw4[16:1],7x/3x,,8x,
,,,,{8}2/1-6[8:1],5,1-4[8:1],3,{4}1-5[8:1]*-6[8:1],
1,{8}2v5[32:3],2,7-4[32:3],7,{16}8,8h[16:3],,,{8}5w1[8:1],
1x,{4}5b,{16}3,4,2,6,{8}5h[8:1],7xh[4:1],
,2-5[8:1],,2/8-4[8:1],6,8,2,1-5[8:1],
7>3[8:1]*V13[8:1],1,{4}7bx,5<8[8:1]/2-5[8:1],5/2,
{8}6,6,7,8/4,1/3,7,6,7,
1-5b[8:1],2,{4}7/1x,2/6x>3[8:1],6x/8,
6/2x<7[8:1],4/2x,6x/2x,{8}6,5x/4x,
7/3,1x,{4}6b-3[32:3]/2b-7[32:3],6/2,{8}3bx-8[8:1],4,
3,5,7x-4[8:1],8,7,2h[8:1],,3/7,
{4}1b/5,1<6[4:1],6>3[4:1],3>8[4:1],
8,{8}5,3,2,6,7,2,
4,7,{4}1b/5,{8}7-4[8:1],2,7,8,
2,3x/5x,,4/6h[4:1],,E1,E3,7,
7,1,{4}8/2,{8}2-5[8:1],7,2,1,
7,6x/4x,,5/3h[4:1],{16},,E1,E8,{4}E7/4w8[32:3],
,7/1>5[4:3],5h[8:1],6h[8:1],
7h[8:1],8V64[4:3],4h[8:1],3h[8:1],
2h[8:1],{24}1x,,,,,1xp5v2>3-5b[24:31],,,,,,,,,,,,,,,,,,,{4}5xv8<7-5[2:1],
,,,B2,
,E7,
,B4,,C,
,B7/E7/B6/B2/B3/E3,1xh[16:1]/2xh[16:1],5xh[16:1]/4xpp4qq4[1:1],
,,,,,5/1,
5/8,5/7,
5/6,4/8,4/1,4/2,
4/3,5h[32:1]/4h[32:1],{8}2,2,7,7,
1,8,{24}1,2,3,4,5,6,7,8,1,2,3,4,5,6,7,8xh[4:1],,,,,,{8}Cf,
2/1-7<6[8:1],5,1-3<4[8:1],3,{4}1w5b[8:1],
1,{8}3-8[32:3],4,6-1[32:3],5,{16}6,5h[8:1],,,{8}8w4b[8:1],
4x,{4}8b,{32}1x/B6,B5,B4,E4,,,,,8x/B3,B4,B5,E6,,,,,{4}5xh[8:1]/1xh[8:1],
{8}3,7/5,6,2/4,{16}5b/1bw5[16:1],3b/7b,,1b,
,,,,{8}7/8-2>3[8:1],4,8-6>5[8:1],6,{4}8-4[8:1]*-3[8:1],
8,{8}6-1[32:3],5,3-8[32:3],4,{16}3,4h[8:1],,,{8}1w5b[8:1],
5x,{4}1b,{16}6,5,7,3,{8}4h[8:1],2xh[4:1],
,7-4[8:1],,7/1-5[8:1],3,1,7,8-4[8:1],
2<6b[8:1]*V86b[8:1],8,{4}2b,{8}8/4>1[8:1],7-4[8:1],4/6,7,
3,{16}3,4,{8}2,1/5,8/6,{16}2,1,3,1,{8}2,
8-4b[8:1],7,{4}2/8b,{8}7/3x<6[8:1],1/5,{4}3x/7,
{8}3/7x>2[8:1],1/5,{4}3/7x,{8}3x/7x,{16}2,1,{8}3,4x/5x,
{16}2/6,8,{8}6,{4}3b-6b[32:3]/7b-2b[32:3],3/7/Cf,{8}6bx-1[8:1],{16}5,4,
{8}6,4,2x-5[8:1],{16}1,8,{8}2,7h[8:1],,6/2,
{4}8b/4,8>3[4:1],3<6[4:1],6<1[4:1],
1,{8}4,{16}6,5,{8}7,{16}3,4,{8}2,{16}7,7,
{8}5,{16}2,2,{4}8b/4b,
E
