&title=テイルオン!ツインテイルズ
&artist=ツインテイルズ「俺、ツインテールになります。」
&first=0
&des=Tail_Red vs TailStar
&lv_5=13
&inote_5=(160)
{1},
{1},
{8}3/4,3/4h[4:1],,2h[4:1],,8,7/5,,
{8}3/4,3/4h[4:1],,2h[4:1],,7,6/5,{16}3,4,
{8}2pp5[2:1],,,6h[4:1],,,7,7,
{16}3,5,4h[4:1],,,,,,7,5,6h[4:1],,,,,,
{8}8qq4[2:1],8,1,2h[4:1],,,3,3,
{8}4/6,4/6h[4:1],,3-8b[8:1],,5,5h[4:1],,
{8}2,2,4,3,6,6,4,5,
{8}3,4,2,8^5[8:1],,4,4h[4:1],,
{8}7,7,5,6,3,3,5,4,
{8}6,5,7,8^3[8:1],,{16}6,,6,,4x/5x,,
{8}3h[4:1],,4h[4:1],,5h[4:1],,6h[4:1],,
{8}2h[4:1],,3h[4:1],,4h[4:1],,5h[4:1],,
{16}3-5[8:1],4,2,,,,,,6-4[8:1],5,7,,,,,,
{8}3,3,4,2-5[8:1],,7,7h[4:1],,
{8}6,5p4[4:1],4,3,,{16}2,2,4,,3x,,
{8}4-1[8:1]/5,,6,,7-3[8:1]/8,,1,,
{8}2^5[8:1]/1,,8,,7p4[4:1]/4,3,2,,
{8}1-5[8:1],,1/7,,6^1[8:1]/5,,3,,
{8}2-6[8:1]/8,,1,,8V64[4:1]/5,4,3,,
{8}2-5[8:1],,2-8[8:1]/5,,2-6[8:1]/8,,6,7,
{8}8-4[8:1],,8-6[8:1]/4,,8-3[8:1]/6,,8/1h[4:1],,
{8}4x-7[8:1],,4-1[8:1]/3,,4w8[8:1]/5,,4,,
{8}2h[8:1]/6h[8:1],,3h[8:1]/4h[8:1],,4/5,4/5,5/6,5/6b<4[8:5],
{1},
{8}5-1[8:1],4/6,,2-5[8:1],,2/6,6h[4:1],,
{16}4,5,4-8[8:1],5,4,,3x/4x,,,,1,8,2x-5[8:1]/7x,,,,
{8}2b/8-4[8:1],8,2-6[8:1],2,8-4[8:1],8,2pp6[8:3],2,
{8}6,7,7,8,8^5[8:1],5,8/4-8[8:1],,
{8}4/6-1[8:1],6,4-8[8:1],4,6-2[8:1],6,4qq8[8:3],4,
{8}8,7,7,6,6-2[8:1],1/7,6,,
{8}1-5[8:1]/2-5[8:1],3,1b/2b,,7-4[8:1]/8-4[8:1],6,7b/8b,,
{4}2^5[8:1]/5,7^2[8:1]/2,4^7[8:1]/7,4/1,
{8}8^3[8:1],7,6,5,4-7[8:1],3,2,1,
{16}8x,7,1x-5[8:1],8,2x,,1/3,,,,4,5,3x-8[8:1]/6x,,,,
{8}3b/5-1[8:1],5,3-7[8:1],3,5-1[8:1],5,3qq7[8:3],8,
{8}7,6,6,5,5^8[8:1],8,5/1-5[8:1],,
{8}1/7-4[8:1],7,1-5[8:1],1,7-3[8:1],7,1pp5[8:3],1,
{8}5,6,6,7,7-3[8:1],4/6,7,,
{8}1-6[8:1]/2-6[8:1],3,1b/2b,,7-3[8:1]/8-3[8:1],6,7b/8b,,
{4}4^1[8:1]/1,7^4[8:1]/4,2^7[8:1]/7,2/5,
{8}6-1[8:1],5,4,3,2^5[8:1],1,8,7,
{16}4x,6,4,6,3,5,3,5,2,8,2,8,1,7,1,7,
{8}1bx-5[8:1]/8bx-4[8:1],2b/7b,1b/8b,,2-6b[8:1],8-4[8:1]*-4[8:1],2,{64}8bx^5p4>1[8:13],B8,Cf,B4,,,,,
{32},,,,,,,,,,,,,,,,,,,,,,,,,,,,,,,
(159.999){1},
{16}8,,7,,1x,2x,3x,4x,5x/6x,,7,,4/5,,6,,
{16}3/4,,5,,2x,3x,4x,5x,1x,8x,7x,6x,4x,3x,2x,1x,
{8}7/8x,7,6/1,6,2/5,2,3/8,3,
{8}4/5,4,3/4,3,{16}2,4,3,4,2bh[4:1],,,,
{8}1,2,3/7,3,4/6,6,7/1,7,
{8}3/4,3,4/5,4,{16}7x,5,6,5,7hb[4:1],,,,
{8}4h[4:1],1x,5h[4:1],2x,3h[4:1],8x,4h[4:1],1x,
{8}5h[4:1],8x,6h[4:1],1x,4h[4:1],8x,5h[4:1],4x,
{16}3-8[8:1],4,1,,,,,,6-1[8:1],5,8,,,,,,
{8}2/4,3,4,5/3V15[4:1],,7,7h[4:1],,
{8}6x,5q4[4:1],4,3,,{16}2,2,4,,3,,
{8}4^1[8:1]/6,,4/6,,7p3[8:1]/8,,7/8,,
{8}1-5[8:1]/4,,1/5,,6pp5[4:1]/4,3,2,,
{8}1^4[8:1],,1/7,,6-2[8:1]/5,,5/6,,
{8}8p4[8:1]/3,,8/3,,2V48[4:1]/5,6,7,,
{8}6^4[8:1],,6^1[8:1]/4,,6-2[8:1]/1,,6/2,3,
{8}4-8[8:1],,4^7[8:1]/8,,4^1[8:1]/7,,1/4,8,
{8}7^4[8:1],,8/7^2[8:1],,6x/7xw3[8:1],,7,,
{8}1/5,1,2/6,2,3/5,3/5,4/6,4bq5[8:5]/6b<4[8:5],
{1},
{8}6-2[8:1],7/5,,4-8[8:1],,4/7,7h[4:1],,
{16}8,7,8-4[8:1],7,8,,1x/8x,,,,3,4,2x-5[8:1]/5x,,,,
{8}2b/8-3b[8:1],8,2x-5[8:1],2x,8-4[8:1],8,2pp6[8:3],2,
{8}6,7,7,8,8-4b[8:1],3,8/3-8[8:1],,
{8}3/5-2b[8:1],5,3x-8[8:1],3x,5-1[8:1],5,3qq7[8:3],3,
{8}7,6,6,5,5-1b[8:1],4/2,5,,
{8}2-5[8:1]/1-6[8:1],3/8,2b/1b,,7-4[8:1]/8-3[8:1],1/6,7b/8b,,
{4}2-5[8:1]/5,7-2[8:1]/2,4-7[8:1]/7,4/1,
{8}8-4b[8:1],7,6,5,4x-8[8:1],3,2,1,
{16}8x,6,1x-5[8:1],7,2x,,1/3,,,,4,5,3/6-1[8:1],,,,
{8}6b/4-7b[8:1],4,6x-1[8:1],6x,4-8[8:1],4,6pp2[8:3],6,
{8}2,3,3,4,4-8b[8:1],7,4/7-4[8:1],,
{8}7/1-6b[8:1],1,7x-4[8:1],7x,1-5[8:1],1,7qq3[8:3],7,
{8}3,2,2,1,1w5b[8:1],8/2,1,,
{8}7-3[8:1]/8-4[8:1],6/1,7b/8b,,2-6[8:1]/1-5[8:1],8/3,2b/1b,,
{4}7-4[8:1]/4,2-7[8:1]/7,5-2[8:1]/2,5/8,
{8}1-5b[8:1],2,3,4,5x-1[8:1],6,7,8,
{16}2x,1,2,1,3,4,3,4,2,8,3,7,2,6,3,5,
{8}3bx-7[8:1]/4bx-8[8:1],2b/5b,3b/4b,,1-5[8:1],7-3[8:1]*-3[8:1],1,{64}7bx^6pp5>5b[8:13],B7,Cf,B3,,,,,
{1},
{1},
{8}3h[8:1]/4h[8:1],,3h[8:1]/4h[8:1],,1h[8:1]/8h[8:1],,1h[8:1]/8h[8:1],,
{8}6/5,6,6/5,6,8/1,8,8/1,8,
{8}2/4,2/4h[4:1],,1h[4:1],,7,6/5,,
{8}2/4,2/4h[4:1],,1h[4:1],,8,7/5,{16}3,4,
{16}2b,1,3h[4:1],,,,6b,5,7h[4:1],,,,5,,,,
{96}8bxv1^4[4:5]*v1b[128:72]/1,8?<5^8[4:5],,,{24}2x/7x,3x/6x,4x/5x,,,,,,,,,,,,,,,,,,,,,
{16},,,,,,,,,,E7,C,E3,,,,
