&title=Dreamland
&artist=z1on & kyrrin
&first=0.02
&des_1=∀-N & sinbik for iC's BirthDay
&des_2=∀-N & sinbik for iC's BirthDay
&des_3=∀-N & sinbik for iC's BirthDay
&des_4=∀-N & sinbik for iC's BirthDay
&des_5=∀-N & sinbik for iC's BirthDay
&des_6=∀-N & sinbik for iC's BirthDay of 19
&lv_6=13
&des_7=∀-N & sinbik for iC's BirthDay
&des=∀-N & sinbik for iC's BirthDay
&inote_6=(120){1},
{1}1xpp6>2[16:9],
{4}1h[4:1],B3,7h[4:1],B5,
{8}3>6[4:1]/4,,8,8h[4:1],,,B5,,
{8}3>5[64:19]/4,,8,8h[4:1],,,B3,,
{4}2^4[8:1]/4,B8,6-8[8:1]/5,B4,
{4}4h[4:1],B3,6h[4:1],B7,
{8}2>7[4:1]/1,,5,5h[4:1],,,B8,,
{8}2>8[64:19]/1,,5,5h[4:1],,,B2,,
{4}3^6[8:1]/1,B5,7qq5[8:1]/8p4[8:1],,
{8}3x-1[8:1],,4/3,,3-1[8:1],7,3,4,
{8}3-1[8:1]/5x,,3,4,3-1[8:1],8,3,4,
{8}3-5[8:1]/5x,,3,6,3-1[8:1],8,3,4,
{8}3^6[8:1],4,3qq5[16:5],7pp4[16:3],,,,,
{8}6x-4[8:1],,6/1,,6-4[8:1],5,6,1,
{8}6-4[8:1]/4x,,6,8,6-4[8:1],5,6,1,
{8}6-8[8:1]/4x,,6,5,6-4[8:1],3,6,1,
{8}6^3[8:1],5,6pp4[16:5],2qq5[16:3],,,,,
{4}3x>5[8:3],C,4x>5[2:1],E5,
{4}C,E1,E8/E2,E7/E3,
{4}6x<4[8:3],C,5x<4[2:1],E5,
{4}C,E1,E2/E8,E3/E7,
{8}5h[8:1]/4,,4h[8:1]/5,,3/5h[8:1],4,4h[8:1]/7,6,
{8}2/5h[8:1],3,4h[8:1]/8,7,1/6h[8:1],2,7/3h[8:1],6,
{8}4/5,4/3,2/3,2/1,8/7,5/6,3/4,2/1,
{4}8-4[4:1],,1s5[8:1],,
{16}3b-1[32:3]/7b,,4/8,,6/3,,5,,4/3,,1,,7,8,6,,
{16}3-8[8:1]/5,,2/4,,5/3-5[32:3],,6,,7,,8,,1,2,1,2,
{8}8x-4[8:1],4,3-5[32:3]/8,2,6-1[8:1],7,3,2,
{8}3-1[32:3]/7,1/5,B7,5x,6-4[32:3]/2,4/8,B2,8x,
{8}1/7V51b[32:5],5,2-4[32:3]/7,3,2-8[32:3],8,2,6,
{8}5/7-4-8b[16:3],8,3-1[32:3]/7,2,3-5[32:3],4,3,8,
{8}1/7V51b[32:5],6,4-2[32:3]/7,3,4-8[32:3],8,4,5,
{8}6/8,E7,1/3,E3,4q1[8:1]/5p8[8:1],C,,,
{8}2x,1h[8:1],B3h[8:1],,6x,7h[8:1],B5h[8:1],,
{8}3>5[64:19],4,8,7h[4:1],,,B5,B7,
{8}3>4[16:5],4,8,7h[4:1],,,B3,B7,
{8}2^4[8:1]/4,1,B8,,6-8[8:1]/5,1,B4,,
{8}3x,4h[8:1],B3h[8:1],,7x,6h[8:1],B7h[8:1],,
{8}2>8[64:19],1,5,6h[4:1],,,B8,B6,
{8}2>1[16:5],1,5,6h[4:1],,,B2,B6,
{8}3^6[8:1]/1,2,B5,,7-4[8:1]/8qq6[8:1],,7x/8x,,
{8}3x-5[8:1],2,3-1[8:1],8,3-5[8:1],4,3,7,
{8}3-1[8:1]/6x,,3-5[8:1],4,3-1[8:1],8,3,5,
{8}2-4[8:1]/6x,,2-8[8:1],8,2-4[8:1],5,2,7,
{8}2^7[8:1],1,2pp8[16:5],6qq1[16:3],,,,,
{8}7x-1[8:1],,7-5[8:1],4,7-1[8:1],8,7,3,
{8}7-5[8:1]/2x,,7-1[8:1],8,7-5[8:1],4,7,1,
{8}6-8[8:1]/2x,,6-4[8:1],4,6-8[8:1],1,6,3,
{8}6^3[8:1],5,6pp4[16:5],2qq5[16:3],,,,,
{2}3bpp6[2:1]/E5h[8:1],E1,
{2}7xpp3[2:1]/E1h[8:1],E5,
{8}1xpp6[2:1]/E3h[8:1],,,,E8,,8x,8xV26-4[8:3],
{8},,4x>5[8:3],,,,,,
{8}4h[8:1],,4h[8:1],,3/5h[8:1],4,6/4h[8:1],5,
{8}2/4h[8:1],3,7/5h[8:1],6,1/4h[8:1],2,8/5h[8:1],7,
{8}6/3,2/5,1/4,3/8,1/2,3/4,5/6,7/8,
{16}6,5,4,3,2,1s5[4:1],8z4[16:3],7,6,,,,,,,,
{16}3b-5[32:3]/6b,,2/7-1[32:3],,3/6,,7,,2,,3/4,,6,5,7,,
{16}2/8-4[8:1],,3-1[32:3]/1,,4/8,,3,,7,,6/8,,5,4,5,3,
{8}4x-7[8:1],8,1-5[8:1]/4,2,6-1[8:1],7,2,3,
{8}4/7-5[32:3],5/8,B4,8x,4-2[32:3]/1,5/2,B1,5x,
{8}6/4V25-1b[64:17],2,8-6[32:3]/4,7,8-4[32:3],1x,8,3,
{8}4/2V41-5b[64:17],1,6-8[32:3]/2,7,6^3[32:3],5x,6,2,
{8}3/1V38-4b[64:17],8,5-7[32:3]/1,6,5-1[32:3],4x,5,2,
{8}3/1,E3,8/6,E7,5s1[8:1]/4-8[8:1],C,,,
{4}2x>5[16:3],5-1[16:3],7,6,
{4}5-8[16:3],8z4[4:1],2,3,
{4}6xpp7^4[32:9],3,2pp3^8[32:9],7,
{4}6V85[4:1],5-2-4[32:7],1xh[8:1],1xh[8:1],
{4}2x/5x,4V68[32:7]/3,1,2,
{4}8>3[32:7],3V15[4:1],2xh[4:1],,
{4}2V48[4:1],8-6[8:1],5,5h[8:1],
{4}4h[8:1]/6,3/7h[8:1],8-5[8:1]*>4[8:1]/2,8x-5^6-3[2:1],
{1}B1h[16:1],
{4},
E
