&title=Impact
&artist=USAO feat.光吉猛修
&first=0
&des=X
&lv_6=14+
&inote_6=(210){4},,,,{1}4>1[4:3]/5<8[4:3],
{8},,1,8,{2}1-5[8:1],
{16}6,5,,5,{4}6h[8:1],5/6h[8:1],3/6h[8:1],
5/6h[8:1],3/6h[8:1],5/6h[8:1],3/6h[8:1],
4/3h[8:1],6/3h[8:1],4/3h[8:1],6/3h[8:1],
4/3h[8:1],6/3h[8:1],4/3h[8:1],6/3h[8:1],
3/6h[8:1],1b/6h[8:1],4/6h[8:1],1b/6h[8:1],
6/3h[8:1],8b/3h[8:1],5/3h[8:1],8b/3h[8:1],
{8}1/7,1,2/8,8,{16}3,4,5,6,7,8,1,2,
{8}3/7,{16}6x,5x,{8}4x,2/6,{16}3x,4x,{8}5x,{4}8b,
8/2-4[8:1],{8}2,1-5[8:1],,1/6-8[8:1],,6/2-5-3[4:1],
,2,{4}1-6[8:1],1/8,{8}8,7/4,
3,5/3-1[8:1],,3/5-7[8:1],,5/4-8[8:1],,4/3V52[4:1],
,3,{4}8-4[8:1],8/1,{8}2b,1b/7b,
{4}8h[8:1]/6h[8:1],3h[8:1]/1h[8:1],7-4[8:1]/8-4[8:1],7/8,
2h[8:1]/1h[8:1],8h[8:1]/7h[8:1],{8}5/6,7,7,7,
{4}8-5[8:1]*z4[8:1],8,{8}2x/7x,1x/8x,{16}1b,8,1,8,
{4}1-6b[8:1],1b/8b-3b[8:1],8b/1bw5b[8:1],1b,
2bx/8bx,{8}3/5x,2,{4}7/3-5[8:1],3/1,
3/7-1[8:1],7/5-3[8:1],5,{8}2/6,5,
3/7,4,{4}6/2-5[8:1],2/6-1[8:1],6/3,
{8}3,4,{4}5-7[8:1]*-3[8:1],5-1[8:1],5b,
{8}2/8,3,6/4,7-4-7[4:1],{2}8/2,
{8}2/8,7,6/4,3-5-3[8:1],{2}8/2,
{8}7/1,7,6/2,6,{16}5,3,5,3,4,2,4,2,
5,6,7,8,,,5,6,7,8,,,{4}4-1[8:1],
8b,{32}E5,B5,{16}B6,,,{4}2b/8b>3[8:1],4-8[8:1],
8b,{32}E5,B5,{16}B6,,,{4}2b/8b>3[8:1],4,
{8}5/6,6/5-3[8:1],{4}5/6,{8}2,1,{4}8-4-2-6[2:1],
8,8,8h[4:1],1,
2/8<5[8:1],4b,{32}B4/3>8[8:1],B5,{16}E6,,,{4}8b,
1x/6<1[8:1],4b,{32}B1/3x<6[8:1],B2,{16}E3,,,{4}8b,
2x/8>3[8:1],4b,{32}B4/5<8[8:1],B3,{16}E3,,,{4}8b,
1x/7x,1-5[8:1]/7-3[8:1],{2}1/7,
{4}4/3,5/6,2/4,7/5,
3/1,6/8,7/3,6/2,
{8}1/5,1/5,2/6,2/6,3/7,3/7,4/8,5/1,
{16}1/5,4,3,2,8,7,6,5,{32}2bx,3,4,5,6,7,8,1,{8}2/5x,5x,
{4}5xh[4:1],{8}4,6/3,{4}4h[4:1]/5-7[8:1],5,
5h[4:1]/4-2[8:1],4,{8}1/8,2/1,8/3,{16}2,1,
{4}2h[4:1],{8}8,1/8,{4}7h[4:1]/8-5[8:1],8,
2h[4:1]/1-4[8:1],1,A3/A4/E4/B3/B4,A7/A8/E8/B7/B8,
1b/5b,{8}8/7h[4:1],1,{4}2h[4:1],4b,
5b/6bh[4:1],8h[4:1],{8}7,7/8,1/6,{16}7,8,
{4}7h[4:1],{8}5,5,8/3,{32}E3,B3,B4,E5,{4}1b<5[4:1],
5x>1[4:1],1<1[2:1],5,1,
{8}5,5,{4}1/7,{8}6/5h[8:1],6,{4}2/8,
{8}4/3h[8:1],4,{4}8/2,{8}3/4h[8:1],3,{4}7/1,
{8}5/6,5/6,6/7,6/7,7/8,7/8,1/8,1/8,
{16}2,3,4,5,1,2,3,4,{4}8b-4[8:1],8q1>8[1:2],
{1}Cf,
{2},,,,,,,,,,A2h[1:1]/A3h[1:1]/E3h[1:1],
A7h[2:1]/A6h[2:1]/E7h[2:1],
{4},1-4[8:1]`5v8b[8:1],{2}1b/5b/B1/B8/B7/B2/B6/B3/B4/B5/Cf,
{4}2h[1:2],E4,,E5,
,E6,,E7,
8h[1:2],E7,,E6,
,E5,,E4,
2h[4:1],1b,7h[4:1],8b,
3h[4:1],1b,6h[4:1],8b,
1h[4:1],2b,8h[4:1],7b,
1b/8b,{8}2/7,3/6,{4}4-1[8:1]/5-8[8:1],E5/C/E1,
7x/2x>7[2:3],C,C,C,
C,C,{2}C,
{4}2x/7x<2[2:3],C,C,C,
C,C,{2}C,
{4}6x/3x>6[2:3],C,C,C,
C,C,{2}C,
{4}8<4[8:1],B5/B4,,,D8/E8/E7/E6/D6,
B3/B2/E3/E4/B4/D4,{2}E1/C/E5,
{4}B1/B8/B7/B6/B5/B4/B3,C,,C/E1/B8/B1/B6/B3/E6/E4/B7/B2,
,C,,C,
A3/E5/A4/E4/B3/B2/E2/A1/E1/B8/B7/E7/A6/E6/B5/B4/B6/A7,C,,E6/B6/B7/C/E4/B3/B2,
,C,,C,
E8/B8/B1/E2/E3/B3/B4/E5/B5/B6/E7/A2/A7/B2/B7,C,,E6/B6/B7/B8/B1/C,
,C,,C,
E6/B6/B7/B8/B1/C,C,E8/B7/B6/E6/B5/B4,C,
1h[8:1]/8h[8:1],1h[8:1]/8h[8:1],1h[8:1]/8h[8:1],1h[8:1]/8h[8:1],
8b/1b-5[8:1],{8}7,7,{4}7-1[8:1],5/7,
4-8[8:1],{8}6,6,{4}6-4[8:1],8/6,
{8}1/5,1/5,2/6,2/6,3/7,3/7,4/8,4/8,
{16}5,4,3,2,8,7,6,5,{32}1,2,3,4,5,6,7,8,{4}5b/1w5[8:1],
{8},,,,,,,,3b/7b,
{16}6,5,{8}4,2b/6b,{16}3,4,{8}5,{4}8b,
7/1h[4:1],{8}8,{16}3,4,{8}3-1[8:1],5,{4}3,
{8}5-3[8:1],1,5<8[8:1],1,5,{32}1,2,3,4,{4}5b/1x,
2/8h[4:1],{8}1,{16}6,5,{8}6-8[8:1],4,{4}6,
{8}4-6[8:1],8,4>1[8:1],8,4,{32}8,7,6,5,{4}4b/8x,
{8}2-5[8:1],1,2,8,7-3[8:1],1,{4}7b,
{8}2-5[8:1],1,2,8,7-3[8:1]*-4[8:1],1,{4}7b,
{8}2-5[8:1],1,2,8,7-3[8:1],1,7b,8,
1-5[8:1],7,{4}1bw5[8:1],1b,3b/7b,
{8}2>5[8:1],2,{4}8,{32}4/8,3/7,2/6,1/5,,,,,{4}2bx/6bx,
{8}7<4[8:1],7,{4}1,{32}5/1,6/2,7/3,8/4,,,,,{4}7bx/3bx,
{8}2>5b[8:1],2,{4}8,{32}4/8,3/7,2/6,1/5,,,,,{4}2bx/6bx,
{8}3/5,4,5/7,6,{16}1,8,,8,1,2,3,4,
{8}7v4[8:1],7,{4}1,{32}5/1,6/2,7/3,8/4,1,2,3,4,,,,,,,,,{8}2v5[8:1],
2,{4}8,{32}4/8,3/7,2/6,1/5,8,7,6,5,,,,,,,,,{4}6-8[8:1]/4-2[8:1],
6/4,5w1b[8:1],5x,
{32}E3,E4,E5,E6,E7,E8,E1,E2,{4}5xh[2:1],,4b>6[8:1],
4/6,4b<2[8:1],4/2,4b>6[8:1],
4/6,4b<2[8:1],4/2,3b-7[8:1],
3/6,5b<3[8:1],5/3,5b>7[8:1],
5/7,5b<3[8:1],5/3,4b,
{8}3/4,2,4/3-8[8:1],5,3/4,7b,{4}7b,
{8}6/5,7,5/6-1[8:1],4,6/5,2b,{4}2b,
{8}2b/8b,3,3,3,1b/7b,6,6,6,
{16}1b/5b,2,3,4,5bv8b[8:1]`1b-4[8:1],8,7,6,{2}5b/1b/Cf,
{8}2/5,{16}3,4,{8}3,6,5x/4x,7,5x/4x,8-4[8:1],
5x/4x,8,{4}3<6[8:1],3/7,{8}8,3,
7/4,{16}6,5,{8}6,3,4x/5x,2,4x/5x,1-5[8:1],
4x/5x,1,{4}6>3[8:1],6/2,1b,
{8}2/5,3,4/7,{16}6,5,{8}6,3-1[8:1],7,3-5[8:1],
7,3-1[8:1],7-3[8:1],3,{4}7,2,
{8}2/8,2,1/7,7,8/2,{16}2,3,{8}4,{16}8,7,
{4}1/6,1>4b[8:1]/6<1b[8:1],{2}1b/6b,
{4}2bh[8:1]/8bh[8:1],{8}2b/8b,7<5[8:1],1,7,{24},,,1,2,3,
{8}5,{24}1,8,7,{8}5,{24}1,2,3,{4}4/8b,{8}5/6,6,
3/4,3,2/8,{24}8,7,6,{8}4,{24}8,1,2,{8}4,{24}8,7,6,
{8}5/1>4[8:1],1,{4}7b-3[8:1],7b/8bx,1,
{8}4x/2x,3,3,3,7/5,6,6,6,
3/4,2,2,2,8/1,7,7,7,
{16}1bx/8bx,2,3,4,5,6,7,8,5b/1b,4,3,2,1,8,7,6,
1b/5b,2,3,4,5bv8b[8:1]`1b-4[8:1],8,7,6,{4}1b/5b`Cf,{16}3,7,3,7,
{32}2b,B2f,Cf,B6f,{8}A6f,
