&title=Unwelcome school
&artist=ミツキヨ
&first=0
&des=団子ネコ
&lv_5=14
&inote_5=(180)
{1},,{4},
{4}56,34,{8}75,{16},
{16}6,{8}6,4,8,8,2,2,1,{16}3-5[8:1],3,{4},
{8}7,7,6,6,2,2,3,3,45,45,36,36,{4}2-5[8:1]/7-4[8:1],27,
{4}18,56,{8}24,{16},
{16}3,{8}3,5,1,1,7,7,8,{16}6-4[8:1],6,{4},
{8}2,2,3,3,7,7,6,6,54,54,63,63,{4}7-4[8:1]/2-5[8:1],7b/2b,
{8}8/1-3[8:1],7,1-5[8:1],6,1-3[8:1],{16}7,7,{8}1,
{8}6-4[8:1],6,2-8[8:1],2,7-3[8:1],7,{16}1,1h[16:3],{4},
{8}56,6,46,4,47,7,73,3,34,25,16,78,{4}7b-4[8:1]*-3[8:1],7,
{8}1/8-6[8:1],2,8-4[8:1],3,8-6[8:1],{16}2,2,{8}8,
{8}3-5[8:1],3,7-1[8:1],7,2-6[8:1],2,{16}8,8h[16:3],{4},
{8}43,3,53,5,52,2,26,6,65,74,83,21,2b,34,56,78,
{8}5/4-2[8:1],6,4-8[8:1],7,4-2[8:1],{16}6,6,{8}4,
{8}7-1[8:1],7,3-5[8:1],3,6-2[8:1],6,{16}4,4h[16:3],{4},
{8}87,7,17,1,16,6,62,2,21,38,47,65,{4}6b-1[8:1]*-2[8:1],6,
{8}4/5-7[8:1],3,5-1[8:1],2,5-7[8:1],{16}3,3,{8}5,
{8}2-8[8:1],2,6-4[8:1],6,3-7[8:1],3,{16}5,5h[16:3],{4},
{8}12,2,82,8,83,3,37,7,78,61,52,34,{4}3b-8[8:1]*-7[8:1],3,
{8}6,5,4,3,6,5,4,3,6-4[8:1],5,3-7[8:1],2,6,6,2,2,
{8}4h[4:1],3,1h[4:1],8,6h[4:1],5,3h[4:1],4,7h[4:1],6,2h[4:1],3,5,4,5,4,
{8}3,4,5,6,3,4,5,6,3-5[8:1],4,6-2[8:1],7,3,3,7,7,
{8}5h[4:1],6,8h[4:1],1,3h[4:1],4,6h[4:1],5,2h[4:1],3,7h[4:1],6,4,5,4,5,
{8}7,8,1,2,7,8,1,2,7-1[8:1],8,2-6[8:1],3,7,7,3,3,
{8}1h[4:1],2,4h[4:1],5,7h[4:1],8,2h[4:1],1,6h[4:1],7,3h[4:1],2,8,1,8,1,
{8}2,1,8,7,2,1,8,7,2-8[8:1],1,7-3[8:1],6,2,2,6,6,
{4}4h[4:1],{8}5,5h[8:1],3,3h[8:1],7,7h[8:1],4,6,4,{4}6,
{8}5,5,5,{4}3h[4:1],4,{8}6h[4:1],{16},5,{8}5,
{8}6,6,4,4,5,5,{16}3,4/3h[16:3],{4},
{8}6,6,5,5,4,4,3,3,6,5,4,3,{4}36,5h/4h[4:1],
{4}6h[4:1],5,{8}3h[4:1],{16},4,{8}4,
{8}3,3,5,5,4,4,{16}6,5/6h[16:3],{4},
{8}3,3,4,4,5,5,6,6,3,4,5,6,{4}63,{8}4h/5h[4:1],3,
{4}2-6[8:1],28,{8}7h[16:3]/5,{16},{8}5h[16:3],{16},{8}6,
{4}6-2[8:1],64,{8}3h[16:3],{16},{8}4h[16:3],{16},{8}3,
{4}3-7[8:1],35,{8}6h[16:3],{16},{8}5h[16:3],{16},{8}6,
{4}6-1[8:1],64,{8}2h[16:3],{16},{8}3h[16:3],{16},{8}4,
{8}45,4,46,4,4h[16:3],{16},{8}6h[16:3],{16},{8}5,
{8}54,5,53,5,5h[16:3],{16},{8}3h[16:3],{16},{8}4,
{16}5,4,5,4,6,3,6,3,7,2,7,2,8,1,8,1,8,1,7,2,6,3,5,4,{4}4b-8[8:1],4,
{16}6,5,6,4,5,3,6,5,7,3,4,2,7,8,6,2,1,3,6,5,7,3,4,3,4,3,5,2,6,5,6,4,8,3,4,3,
{16}5,6,7,8,15,2,3,4,51,2,3,4,{8}57,6,18,34,{4}5/6-2[8:1]*-1[8:1],6b,
{16}3,4,3,5,4,6,3,4,2,6,5,7,2,1,3,7,8,6,3,4,2,6,5,6,5,6,4,7,3,4,3,5,1,6,5,6,
{8}3,34,6,56,18,24,3-7[8:1],4,3-1[8:1],5,3-7[8:1],4,3,5,6,
{16}6,5,{8}6,47,3,34,6,56,3,{16}3,4,3,5,4,6,3,4,2,6,5,7,2,1,3,
{16}6,5,7,3,4,3,4,2,5,3,6,4,7,8,6,2,4,3,4,3,6,5,7,
{16}1,2,3,4,51,6,7,8,{8}15,{16}2,4,{8}3,{16}7,6,5,4,3,2,1,8,{8}73,
{16}6,5,{8}6,47,{16}6,5,{8}6,34,18,56,3,34,6,65,2,24,7,57,34,56,
{8}1-5[8:1]/8-4[8:1],27,{2}1b/8b,
{8}6-4[8:1],5,3-7[8:1],2,5-1[8:1],6,2-4[8:1],3,
{8}7-3[8:1],1,7^4[8:1],2,7,1,2,34,{8}8h[4:1],1,3h[4:1],4,6h[4:1],7,1h[4:1],8,5h[4:1],6,2h[4:1],1,7,8,7,8,
{8}3-5[8:1],4,6-2[8:1],7,4-8[8:1],3,7-5[8:1],6,
{8}2-6[8:1],8,2^5[8:1],7,2,8,7,65,{8}1h[4:1],8,6h[4:1],5,3h[4:1],2,8h[4:1],1,4h[4:1],3,7h[4:1],8,2,1,2,1,
{8}6-4[8:1],5,3-7[8:1],2,5-1[8:1],6,2-4[8:1],3,
{8}7-3[8:1],1,7^4[8:1],2,7,1,2,34,{8}8h[4:1],1,3h[4:1],4,6h[4:1],7,1h[4:1],8,5h[4:1],6,2h[4:1],1,7,8,7,8,
{8}3-5[8:1],4,6-2[8:1],7,4-8[8:1],3,7-5[8:1],6,
{8}2-6[8:1],8,2^5[8:1],7,2,8,7,65,
{4}6h[4:1],4,{8}3,4,3h[4:1],5,6,6h[8:1],4,{4}4h[8:1],
{8}5,{4}5b,
{4}3h[4:1],5,{8}6,5,6h[4:1],4,3,3h[8:1],5,5h[8:1]/4h[8:1],
