&title=雨き声残響
&artist=orangestar
&first=0.48
&des=未完成
&lv_5=13+
&inote_5=(82.5)
{4}4h[4:1],6h[4:1],3h[4:1],7h[4:1],1bw5[4:1],,,,
{4}Ch[16:1],,
{8}6,5,46,,3,4,35,,7,6,5/7^5[16:1],,4h[8:1],3,5h[8:1],6,
{8}3h[8:1]/4,2,1-5[16:1]/8,,6h[8:1],7,1/8<5[16:1],,
2h[8:1],3qq4[8:1],45,,7h[8:1],6,
{16}1,8,7,6,
{16}5/4>7[8:1],,1,1,
{16},7,6,5,
{16}4pp5[8:1],,1,1,
{16},2,3,4,
{16}5^3[16:1],,7^2[16:3],6q3[8:1],5,,,,,,1,1,,3,4,5,
{4}B6,B7,B2,B3,C,,
{16},34,34,45,56,56,73,73,
{16}1bp5[8:1]/8,,5^7[16:1]/4,,12,,2,3,4-8[8:1],,1/8-6[16:1],,34,,2,1-5[16:1],,3,5pp5[16:3],1pp1[8:1],,,,,,,
7,7qq8>6[4:1],,,2,2h[4:1],,,,,18,,7^4[16:1]/4^1[16:1],6,,3,7/4-8[16:1],,,,
1,2,3,,6,75,,3,24,,1-5[16:1]/8-4[16:1],,5pp6[8:1]/4qq3[8:1],,,,,,,,
6h[8:1],4^7[16:1],2h[8:1],,,84,1,2qq7[16:3],3q6[8:1],,,,,,,,
2,56,,34,,27,,,
18,1/8-4[16:1]b,,35,,1x,2hbx[8:1],,1,8>4[16:1]b,,56,,7x,6hbx[8:1],,5,34,,28,,3x,2hbx[8:3]/6hbx[8:3],,,,,,,,,2,3,7,6,3,4,6,
{4}E5,B3,B7,E2,E6,B1,B5,E4/6bx,E8,B2,B6,E3,E7,B4,B8,7hx[8:1]/E1,E6,B3,B5,E2,E7,B1,
B8,E4/6bx,E5,B2,B6,E3,B7h[2:1],,,,
{64}4x,3hx[64:15],,,,,,,
{8},7,6h[8:1]/5,2-5[16:1],5-3[16:1],6,7h[8:1],,2/5h[8:1],
{16}3,4-8[16:1],2,,
{8}5-7[16:1],7-4-8[8:1],1,2h[8:1],,12,3,45,1^4[16:1]b/7^4[16:1]b,26,17,,56,7/4h[8:1],
{16}6,5-1[16:1],7,,
{8}4-2[16:1],2-5[16:1],8,7h[8:1],
{16}1,,25,,8,1,2,3,4qq3[8:1],,8,7,6,,5-7[16:1],2-4[16:1],,5,,2,,
{16}8,74,,36,,1,8,7,6-8[16:1],5,4-2[16:1],,6,3,4,,
{16}8,7,6,
{4}5/E4,6/B3,2/B7,3/E8,1bx/C,,
{16},65,65,54,43,43,26,26,
{16}1bq5[16:1]/8,,7p3[16:1],,1,,7,1,2/4-8[16:1],,7-5[16:1],,4,,7,8-4[16:1],,7,5qq5[16:3],5pp5[8:1],,,,,,,
2,2pp1<3[4:1],,,7,7h[4:1],,,,,
18,,2-5[16:1]/5-8[16:1],3,,6,2/5s1[8:1],,,,
8,7,6,,3,24,,6,75,,8v7[16:1]/4v3[16:1],,7qq6[8:1]/3qq2[8:1],,,,,,,,
1h[8:1],3^6[16:1],8h[8:1],,,73,8-6[16:1],1-5[16:1],2-4[16:1],,,,,,1,1,
28,56,,34,,27,,,
18,1/8-6-4[16:1]b,,34,,8x/1x,2hbx[8:1],,3,4-2-8[16:1]b,,78,,6x/4x,7hbx[8:1],,8,21,,35,,2x/7x,Chf[2:3]/B1h[16:20]/B8h[16:21]/B2h[16:22]/B7h[16:23],,,,,,,,,,,,
{4},,,,1?<5[16:1]b/1?>5[16:1]b,
{8}1b,27,1^4[16:1]/8,56,18,5/7h[8:1],
{16}4v7x[16:1]b,6x,3x,,
{8}8^3[16:1],56,7/8,5^8[16:1],21,5v2[16:1]b/3,
{16}4x,6x,5x,,
{8}1-4[16:1]/8-5[16:1],27,1b/8b,,18,34,
{16}1xv4[16:1]b,2x,8x,,
{8}1v6[16:1]b/7,8,1>5[16:1]*<5[16:1]/3,2,
{16}1b,,27,,1,8,7,6,
{8}54,75,2/4-8[16:1],78,45,1/7h[8:1],
{16}5xpp6[8:1]b,4x,6x,,
{8}3/5qq4[8:1]b,4,57,6,
{16}3h[8:1]/7,,1,,18,27,,,
{16}8x^5[16:1],8,5,5,4xv7[16:1]b,4,2,2,1x^4[16:1],1,4,4,5xv2[16:1]b,5,7,7,8x^5[16:1],8,5,5,4xv7[16:1]b,4,2,2,1,1,8,8,2,7,3,6x<3[4:1]b,,,,Ch[4:1],
