&title=rowdy
&artist=DAZSTA
&first=1
&des=KOM
&lv_5=13
&inote_5=(100)
{4}
#1qianzou
{16}1,1,7,7,3-6[4:1],,5,,5h[4:1],,,,,,,,
{16}8,8,6,6,2-7[4:1],,4,,4h[4:1],,,,,,,,
{16}1,1,7,7,3-6[4:1],,5,,5h[4:1],,,,,,,,
{16}1,1,7,7,2h[4:1],,4h[8:1],,,{32}2,1,2,,8,,3,,7,,4,,{16}6,
#2
{16}5b-8[16:2],,8,8s4[16:5],,,1,,1h[4:1],,,,,,,,
{16}6/5-8[16:2],,8,8z4[16:5],,,7,,7h[4:1],,,,,,,,
{16}4/5-8[16:2],,8,8s4[16:5],,,1-4[16:2],,1,,,,,,,,
#3down
{16}3b,3,5,5,7,7,1,1,{32}2/8z4[8:1],,2-6[16:1]/8,37,46,,4/6,,{16},,,,
#4zhu
{16}7h[8:1],,5,7,6h[8:1]/5-8[16:1],,8,,6/5,,6,7,8h[8:1]/5h[8:1],,,,
{16}7h[8:1],,5,7,6h[8:1]/8-5[16:1],,5,,7/8,,6,7,8h[8:1]/5h[8:1],,,,
{16}7h[8:1],,5,7,5h[8:1]/6-1[16:1],,8,,7/6,,8,7,6h[8:1]/5h[8:1],,,,
{16}7h[8:1],,5,7,6h[8:1]/8,,5,,4^2[16:1]/7^1[16:1],{32}6,5h[32:3],6h[16:1],,{16},,,,,
#5
{16}2b-8[16:1]/8b,,4,4h[16:3],2,,2h[8:1],,3^4[24:1],5^6[24:1],7,1,,,,,
{16}2-4[16:1]/4,,8,8h[16:3],2,,5h[8:1],,4^3[24:1],2^1[24:1],8,6,,,,,
{16}2-8[16:1]/8,,4,4h[16:3],2,,2h[8:1],,3^4[24:1],5^6[24:1],7,1,,,,,
#6down
{32}78,1,2,3,8,7,6,5,43,2,1,8,5,6,7,8,1-6[16:1]/2,,3,4,3,,{16}25,1b/6b,,8b,,
#7chongfuxuanlv
{16}2qq7[8:4]/6,,6,,,,6,,,,6,,,,6,6,
{16}7pp2[8:4],,4,,,,4,,,,4,,3<6[8:1],,,,
{16}3bpp6[8:4],,7,,,,7,,,,7,,,,7,7,
{16}6qq3[8:4],,1,,,,1,,,,1,,1w5[16:1],,,,
#8build
up
{16}1b,,7,7,6h[8:1]/5,,8,8,7h[8:1]/5,,1,1,8h[8:1]/5,,2,2,
{16}1h[8:1]/5,,3,3,2h[8:1]/5,,4,4,3h[8:1]/5,,5,5,4h[8:1]/5,,6,6,
{16}7/5,7/5,6/4,6/4,5/3,5/3,4/2,4/2,{32}3,4,3,4,2,5,2,5,1,6,1,6,8,7,8,7,
{48}1s5[16:11],,,,,,,,,2,,,,,,{32}6,5,6,,4,,{16}7,{32}1,8,1-5[16:1],,7,,2,,,,1b,,,,
#9drop1
{16}2-6[12:1]/6,,1/7,,2-4[16:1],5,5,5,2,7,7,7,5-1[16:1]/8,,7/3V57[8:1],,
{16}4/5,,,,1-4[16:1]*-6[16:1],2,8-5[16:1],,1b,,,,3-7[16:1],4,2-6[16:1],,
{16}1b/3b,,,,8/4,{32}7,5,6,4,5,,4^1[16:1]/6,,7h[16:1],,6h[16:1],,5h[16:1],,4,,,,7b/8b,,,,
#down
{16}6h[8:1],5,4,3,2h[8:1],1,8,7,6^8[16:1]/3^1[16:1],{32}4,5,{16}4,27,,,,,
#10
{16}1-5[12:1]/7,,2/6,,1-3[16:1],4,4,4,1,6,6,6,3-1[16:1]/5,,8-2[16:1]/7-4[16:1],,
{16}3b/4b,,,,8-3[16:1]*-5[16:1],6,7-2[16:1],,8b,,,,3^8[16:1],5,4-7[16:1],,
#up
{16}3b/5b,,,,2b,8h[16:1],7h[16:1],6h[16:1],1b,7h[16:1],6h[16:1],5h[16:1],8b,8b,8b,8b,
{16}5/7,6,5,6,2/4,3,4,3,2/8,{32}1,1,1-5[16:1],,28,,37,,,,8b,,,,
#11
{16}6/4,,3,3,6,,3,,6,6,5,,6/4>1[16:1],,7h[8:1],{32},,4b,,
{16},7,7,1,,7,,2,2,7,,3<6[16:1]/5,,7h[16:2],,3b,
{16},7,7,5,,7,,4,4,7,,8<5[16:1]/3,,2h[8:1],{32},,8b,,,,
{16}3,5,5,,3,,{32}5,,2,4,3,,3,,5,,6,,7b/8b,,,,
#12
{16}8/7,,1/7,,7/2,,7/3,,7/4,,7/5,,7/4,,1/2,{32}2/1,,2/8,,
{16},7/2,,6/2,,5/2,,4/2,,5/2,,6/2,,5/2,,
{16}2/4,2/4,3/5,3/5,4/6,4/6,7/5,7/5,{32}4,6,4,6,3,7,3,7,2,8,2,8,1,1,1,1,
{16}1,{32}2,4,3,,3,,,,7,5,6,,6,,3/5,,4,4,4-8[16:1],,5/3,,6/2,,,,7b,,,,
#VM
drop2
{32}1/8-6[16:1],,7,,{16}2,2,8-2[16:1],1,,6,{8}6/8-4[16:1],{16}7-2[16:1]/3-6[16:1],1,{4}8b,
{16}8/1-3[16:1],2,{16}7,7,1-7[16:1],8,,3,{8}3/1-5[16:1],{16}2-7[16:1]/6-3[16:1],8,{4}1b,
{16}1/8-6[16:1],7,{16}2,2,8-2[16:1],1,,6,{8}6/8-4[16:1],{16}7-2[16:1]/3-6[16:1],1,{4}8b,
{16}1/8,6,3h[16:1],4h[16:1],2,2,7h[16:1],8h[16:1],{32}6-2[16:1],5,{16}6,4w8[16:1],4,,,{8},
{32}6-3[16:1],,6,,{16}4,5,2-5[16:1],2,8,1,6^1[16:1],6,4,5,{32}2b,3,4,5,6,7,8,1,
{16}7-2[16:1]/2,7,4,5,3-6[16:1],3,8,1,7-3[16:1],7,4,5,{32}3b,2,1,8,7,6,5,4,
{32}7-2[16:1]/3,,7,,{16}1,8,3-8[16:1],3,5,4,7^4[16:1],7,1,8,{32}3b,2,1,8,7,6,5,4,
{16}3/8-4[8:3],{32}7,6,{16}5,5,{32},,1,2,{16}3,3,{32},,7,6,{16}5,5,3b/4bw8[16:1],7b/8b,6b/5b,1b/2b,
