&title=その音が鳴るなら
&artist=石風呂;Leo/need;巡音ルカ
&first=0
&des=Sakikeai
&lv_5=13
&inote_5=(213)
{1},,
{16},Ch[8:21],,,,,,,,,,,,,,,,,,,,,,,,,,,,,,,,,,,,,,,,,,,,,,,
{8}8-6-1-5-2-4[4:5],,,,,,,,,,,,,,,,
35,,2h[4:1],,4,3,5,,
46,,7h[4:1],,4,6,3,,
24,,1h[4:1],,8,2,7,3,
6,5,7h[4:1],,3,4,2,,
71,,6h[4:1],,5,7,4,,
28,,3h[4:1],,4,2,5,,
17,,6h[4:1],,5,7,4,8,
3,5,4h[4:1],,6,4,5b,,2<6b[4:5],,4,,4,,4,,4,,4,,4,,4,,35,,4,,4,,4,,35,,4,,4,,4,,36,,5,,2,,5,,36,,7,,4,,7,,3pp3[8:9]/6qq6[8:9],,,,,,,,,,,,,,36,,2-4[8:1],,5,,7-5[8:1],,4,,2,,35,,7,,46,,5-7[8:1],,2,,4-2[8:1],,7,,5,,46,,7x,7x,35,,2-4[8:1],,7,,5-7[8:1],,2,,4-2[8:1],,5,,7-5[8:1],,4,,2,2,4,3,6,6,5,7,4,4,35,,47,,15,,
3-1[8:1]/8,,6,,58,,2,,3-1[8:1]/8,,6,,58,,2,,
38,,7,7,1h[4:1],,5,,
27,,6,6,8h[4:1],,5,,7b/1,,82,,31,,42,,53,,64,,
{16}3,5,3,,7,5,7,,
2-4[8:1],,,,6,,,,8-6[8:1]/5,,8,,3,,,,1-5[8:1]/5,,,,,,,,8-4[8:1],,8,,2,,,,
1,,,,5/7h[4:1],,,,1,,,,3h[4:1]/4,,,,8,,,,5/6h[4:1],,,,2,,2,,37,,,,
2-8[8:1]/8,,,,,,,,7/3-7[8:1],,,,,,,,4-6[8:1]/6,,,,,,,,7,,7,,46,,,,1,,,,35,,,,7,,7,,3V14[2:1]*pp4[2:1],,,,,,,,,,,,,,,,,,,,
7-5[8:1]/4,,,,,,,,4/1-3[8:1],,,,,,,,8-4[8:1]/4,,8,,2h[2:1],,,,,,,,
{16}5,3,5,3,
{6}5x,
{48}E4,A4,,,,,,,E7,A6,,,,,,,B5,A5,,,,,,,A7,D7,,,,,,,D3,A3,,,,,,,
{12}5x,,4x,{24}5x,,6x,{8},3b/7h[4:1],,,,4-2[8:1]/8,,7,,1/6-8[8:1],6,4,,5-1[8:1]/1,,7,,6,6,2,2,5^8[4:1],,8^3[4:1],,3^6[4:1],,6s2[2:1]*V82[2:1],,,,,,,,,,
61,,3,7,4-2[8:1],,8,,1,5,3,7,4-2[8:1],,8,,
61,,2,2,8h[4:1],,4,,
27,,3,3,1h[4:1],,4,,
28,,6,6,5,5,4,4,
3b>7[4:3],,,,,,,,5b-8[16:5],,,1bV38[8:5],,,,,,,,,B5,,,,1b-4[16:5],,,5bV74[8:5],,,,,,2x,2x,2x,5,5,3,3,6b,,,1b,,,28,,37,,46,,17,,
{16}3,5,3,5,3-8[8:1],,,,6-3[8:1],,,,1-5[8:1],,,,5w1[8:1],,,,Cf,,,,,,,,,,,,,,,,
6b-4[8:1]*-8[8:1],,,,,,,,1bv6[8:1]/3,,,,,,,,
2-4[8:1],,,,7,,,,8-6[8:1]/5,,8,,3,,,,1-5[8:1]/5,,,,6,,,,8-4[8:1],,,,3-1[8:1]*-5[8:1],,,,
3,,,,,,,,1,,2,,3/8-6[8:1],,,,1h[4:1],,,,5-7[8:1],,,,2,,3,,4x-1[8:1]/8x,,,,6h[4:1],,,,8-3[8:1],,,,6,,7,,8x^5[8:1]/4x,,,,1h[4:1],,,,3,,2,,8,,1,,6,,5,,8-4[8:1],,,,38,,,,1h[4:1],,6x,7x,8x,,2x,3x,4xb-1[8:1]*-2[8:1],,,,,,,,8b-5[8:1]*-3[8:1],,,,,,,,
7-5[8:1],,,,2,,,,1-3[8:1]/4,,1,,6,,,,8^5[8:1]/4,,,,3,,,,1^3[8:1],,,,4pp1[2:1],,,,6,,,,,,,,7,,6,,5/2-5[8:1],,,,7h[4:1],,,,4-1[8:1],,,,6,,5,,4,,,,
2,,2,,4,,4,,5,,5,,6,,6,,8b-4[1:1],,,,,,1,,1,,,,2,,2,,,,3,,3,,,,52,,,,18,,,,
2b/7b,,,,,,,,,,,,,,,,
4,5,4,5,4-1b[8:1],,,,B3f/B2,,,,,,,,
7xz3[8:1]/8xs4[8:1],,,,,,,,2xs6b[8:1]/1xz5b[8:1],,,,,,,,3xz7[8:1]/4xs8[8:1],,,,,,,,6xs2b[8:1]/5xz1b[8:1],,,,,,,,3x,,4x,,8x,,7x,,5x,,6x,,2x,,1x,,3x,,4x,,8x,,7x,,5x,,6x,,2x,,1x,,
{16}2x,3x,4x,5x/6x,,,,,{16}7x,6x,5x,4x/3x,,,,,1x,2x,3x,,5x,6x,7x,,1x,2x,3x,,5x,6x,7x,,2xb,3x,4x,,6xb,7x,8x,,2xb,3x,4x,,6xb,7x,8x,,3xb,4x,5x,,7xb,8x,1x,,3xb,4x,5x,,7xb,8x,1x,,Cf,,,,,,,,,,,,,,,,,,,,,,,,,,,,,,,,A6h[1:5],,,,,,,,,,,,,,,,A5h[1:4],,,,,,,,,,,,,,,,A4h[1:3]
,,,,,,,,,,,,,,,,A3h[1:2],,,,,,,,,,,,,,,,,,,,,,,,,,,,,,,,,,,,,,,,,,,,,,,,
2-4[8:1],,,,5h[8:1],,,,1-5[8:1],,,,6h[32:1],,,,
2-4[8:1],,,,5h[8:1],,,,1-5[8:1],,,,6,,,,
7-5[8:1],,,,4h[8:1],,,,8-4[8:1],,,,3h[32:1],,,,
7-5[8:1],,,,4h[8:1],,,,8-4[8:1],,,,3,,,,
2-8[8:1],,,,5,,,,6-8[8:1],,,,3,,,,
2v4[8:1],,,,5,,,,6v4[8:1],,,,3,,,,
2-8[8:1],,,,6-4[8:1],,,,,,,,2,,,,18,,,,,,,,
B6/B7,,,,
{64}B3,B2,,,,,,,,,,,,,,,
{16}8b,,,,53,,,,2,,,,46,,,,7,,3x,5,3,5,3,5,3,,6x,4,6,4,6,4,
6,,,,28,,,,5,,,,17,,,,4b-2[8:1],,,,6-8[8:1]*-8[8:1],,,,1-5[8:1],,,,,,,,7-5[8:1],,,,4,,,,2-4[8:1],,,,8,,,,6-8[8:1],,,,1,,,,3,,A6,E6,E5,,2,,A7,B7,C,,3,,A6,E6,E5,,2,,A7,B7,C,,1,,1,,5,,5,,2,,2,,6,,6,,3pp3[4:3],,,,,,,,,,,,,,,,,,,,E7,B6,B5,,2,,2,,2h[4:1],,,,4<8[2:1],,,,,,,,3,,,,,,,,5>1[2:1],,,,,,,,6,,,,,,,,4,,E2,E3,A3,,A8,B8,C,,A7,E7,E6,,A1,E2,E3,,B8,C,B4,,E7,E6,A5,,E2,E3,A3,,C,B4,A4h[4:3],,,,,,,,,,,,,,,,15,,15,,5^8[8:1]/1^4[8:1],,15,,,,,,,,,,7b^2[8:1]/4bv2[8:1],,,,,,,,8b-5[8:1],,,,,,,,4/2-4[8:1],,,,6,,,,8-6[8:1]/5,,8,,3,,,,
1v6[8:1]/5,,,,7,,,,8v3[8:1],,,,2-5[8:1]*-7[8:1],,,,
2,,,,,,,,8,,7,,6/1^4[8:1],,,,8h[4:1],,,,5p1[8:1],,,,7,,6,,5x^8[8:1]/8x,,,,2h[4:1],,,,1p5[8:1],,,,3,,2,,1x^4[8:1]/4x,,,,7hb[4:1],,,,6h[32:1],,8x,,2hb[32:1],,4x,,8h[32:1],,6,,4b,,,,3,5,3,5,{12}3,4,2,6,5,7,
1-3[8:1],,,14,,,7-5[8:1]/4,,,47,,,1-3[8:1]/4,,,14,,,7-5[8:1]/4,,,47,,,1-4[8:1],,,71,,,1-6[8:1]/5,,,13,,,5/1-4[8:1],,,71,,,1-6[8:1]/5,,,1/3,,,
{16}1bV38[4:1],,,,8-4[8:1],,,,7,,6,,5,,,,
7V58[4:1],,,,8-4[8:1],,,,1,,2,,3,,3x,,5b-1[1:1],,,,,,6,,6,,,,7,,7,,,,8,,8,,,,
2,,,,2,,,,
{24}2/1b,8b,7b,,,,,,,,,,,,,,,,,,,,,,
{16}6,1,6,1,6<5[8:3],,,,2b,,,,,,,,
{8}3,,7h[4:1],,5,6,1,,
53,,2h[4:1],,5,3,8,,
75,,8h[4:1],,1,7,3,5,
3,4,2h[4:1],,6,5,7,,
28,,3h[4:1],,4,2,7,,
68,,5h[4:1],,1,7,2,,
13,,4h[4:1],,8,2,7,1,
6,4,5h[4:1],,3,5,4,,
7b/3h[4:1],,5,,82,2,6,,
7/3h[4:1],,5,,82,2,6,,
2b/6h[4:1],,4,,17,7,3,,
2/6h[4:1],,4,,17,7,3,,
6b/4h[4:1],,8,,35,3,7,7,
4h[4:1]/6,,8,,35,3,7,7,
3b/5h[4:1],,1,,64,6,2,2,
5,5,4,4,3,3,2,2,1bw5[1:1],,,,,,,,,,,,37,37,37,37
,,,,,,,,,
E
