&title=367Days
&artist=KiRaRe「Re:ステージ!プリズムステップ」
&first=0
&des_5=ナツナツフユフユ
&lv_5=13+
&inote_5=(180)
{1},,,,
{16}4,5,4,5,4,,3-7[8:1]/7,,,,36,,,,4bx/5bx,,,,
{8}3,6,,2,4,3,5,7/8<2[2:1],,8,5h[8:3],,,,,
{16}12,,,,7,,3,,45,,,7,1,,1,,
{8}6,5,4,3,2h[4:1],B3/E4,B3/E4,,
{8}1,1,6,6,3,3,5,5,4,{16}B3,B2,B1,,{8}6,B8/6,6,B2/6,6,
{8}6/B3h[8:3],,,B7h[8:3],,4,3,2h[4:1],,6,7,8h[4:1],,1,,,
{4}2,2,35,46,7,7,46,3-6-8[4:1],8V25[4:1],4x,4x,{8}5x,6x,78,,1,,1,
{8}2,3/5-7[8:1],5,1-5[8:1],1,8,8>4[4:1],,4<8[4:1],,
{8}1,,,3,,3,4,3,,5h[2:1],,,4,4xqq5[2:1],,,,,,6,,7,,8b,,
{2}5>1[4:1],4<8[4:1],{4}5^2[8:1],5,4^7[8:1],4,
{8}1bx/8bx,,34,2b/5b,,56,4b/7b,,,1,28,37,4hx[4:1]/6hx[4:1],,,,
{8}4^1[8:1]/6,,4/8-3[8:1],,8x/A7,A6,A5,,A4h[4:1],,1,,
{8}2,4,35,,3/5^8[8:1],,1-6[8:1]/5,,1x/A2,A3,A4,,5hx[4:1],,,6,7,5,4,,
{8}7h[8:3]/4,3,4,3,7^4[4:1],,4<8[4:1],2,,1-3[8:1]*-4[8:1],,1-7[8:1]*-6[8:1],,1,,,
{8}2h[8:3]/5,6,5,6,2^5[4:1],5,5^8[4:1],6h[4:1],,,,26,,48,,,Ch[4:1],,,,,
{8}6,5,6,4,,12,,78,,5V31[4:1],,1V75[4:1],,4,3,,3h[4:1],,4<3[2:1],,42,1h[4:1],,,,1,,
{8}5,,6,78,,3,12,,6,78,,2,34,5,4,5,4qq3[8:3]*pp5[8:3],,,C,,,,B6h[4:1]/B5h[8:3]/B4h[2:1]/B3h[8:5],,,,,
{8}8,,7-5[8:1]*-4[8:1],,7b,,3,24,1b/8b,,6,57,1b/8b,,,
{8}25,3,48,3,26,5^8[8:1]/8^3[8:1],,5w1[8:1]/8,,5,,6,57,6-3[8:1]b/8-4[8:1]b,,68,,
{8}1,,2v4[8:1]*-5[8:1],,2,,68,7,7,13,2,2,3/5pp5[4:1],4,3/5qq5[4:1],2,,1h[4:1],,,
{8}6,6,5,5,7-4[8:1],7,2-5[8:1],2,8^5[8:1],,8,,
{8}8^1v3^5[4:1]b,,6,7,7,,
{8}5,6,5qq1[4:1],,8,7,7,,
{8}6,5,6qq1[4:1],,3,2,
{8}2h[4:1],,4,4,3,,5>6[2:1],4,5,,,,
{16}B4,,,B3,,,B2,,6,,4,5,4,,7,,3,4,3,,8b,,1b,,,,,,
{8}8h[8:5],,2h[8:3],,,,2^5qq4[2:1]/8^5pp6[2:1],,,,,,,,
{16}5,,4,,5,,3,,6,2,7,1,
{8}8w4[8:1],,8,,1p4[8:1]/8q5[8:1],18,,,,
{8}7,{4}7<3[4:1],3<8[4:1],8^5[4:1],
{8}4>8[4:1],4,,5-3-1-7[4:1]b,,5,,4,36,2V48[4:1]/7V51[4:1],,27,,,
{8}6h[2:1],,,,5,4,3,2,,4,5,6^3[8:1],,,
{8}1h[8:1],,1h[8:1],,2h[8:1]/8h[8:1],,3b/7b,,B6/2,2,,6/E3,6,,A4/8,8,,
{16}2,1,2,1,2,1,
{8}2w6[8:1]b,,2,,1q6[8:1]/2p5[8:1],12,,,,
{8}3v1[8:1],3,,8v2[8:1],8,,4v1[8:1],4,5-7[8:1],,5-3[8:1],,5-8[8:1],,5,2,1xw5[8:1],,1x,,,
{2}4-8[8:1]*-8[8:1],
{8}2,2/B8,2,3/B7,3,3/B6,4,
{8}5,5/B4,5,6/B3,6,6/B2,7,,
{8}7h[8:1]/8h[8:1],,18,2^5[8:1],1,2,,
{8}78,18,2^5[8:1],1,2,,
{8}18,18,,2h[8:7]/7h[8:7],,,,,,,,,
{8}E1,E2,E3,E4hf[8:5],A5,A6,A7,A8,
{4}1x-6[8:1],1/7-4[8:1],7/5-2[8:1],5/3-8[8:1],
{4}1-6[8:1]*-4[8:1]/3,1,2h[8:1]/8h[8:1],2h[8:1]/4h[8:1],
{4}3-1[8:1]/5-1[8:1],35,4-8[8:1]/6-8[8:1],46,
{1}1x-6-2-7-4-1[4:3],
{8}7hx[2:1],,8,,5,47,3,2,
{8}2hx[2:1],,1,,4,25,6,7,
{8}8h[2:1],,5,,4,38,2,14,,25,{16}3,4,3,4,3,4,3,4,3^6[8:1],,,,
{8}8,,8,7h[2:1],,6,,5h[2:1],,,6,6>8[4:1],,,,4x,
{4}4x-7[8:1],4/6-1[8:1],6/8-3[8:1],8/2-5[8:1],2/4-7[8:1]*-1[8:1],4,
{8}8,17,26,3h[8:7]/5h[8:7],,,,,,,,,
{8}2,2,4,4,6,6,8,8,
{16}1,,6,5,6,,3,4,3,,6,5,6,,4h[8:3],,,,,,
{12},B4,B3,B2,B1,B8,B7,B6,B5,
{1}3h[1:2],,
{4}B4,B2,C,E1,6^4[4:1],,B5,,
{2}2^4[4:1],1>5[4:1],8>6[2:1],,
{4}B5,B7,C,E1,3,,
{16}6,,,5,,,4,,5,,,3,,,4,,2,,5,,,4,,,{4}5>1[4:1],1<5[4:1],
{16}4,,,,4,,,,5,,,,4,,7,,6,,,3,,,5,,{4}4<8[4:1],8>4[4:1],
{8}5,,5,,4h[4:1],,6,4,6h[4:1],5,5,7^4[4:1],,,B6,B5,B4,,
{8}3,2,1/8-4[8:1],,8,1-5[8:1],,1^4[8:1]b/4^7[8:1]b,,14,,18,18,,
{4}1,2-4[8:1],{16}2b,,6,5,6,,7b/8b,,3,4,3,,1b/2b,,5,4,5,,1b/8b,,4,5,4,,1b/8b,,6,5,6,5,6,,,,,,
{4}1bx-5[8:1]/2bx-4[8:1],1-7[8:1]/2-6[8:1],1-5[8:1]/2-4[8:1],12,17,
{8}8,,7v5[8:1]*-4[8:1],,7,,31,2,2,86,7,7,36,5,26,7,,8h[4:1]/1,,,
{8}3,3,4,4,2-5[8:1],2,7-4[8:1],7,1^4[8:1],,1,,
{4}1v4[8:1]/8-5[8:1],18,7-5[8:1],7,
{4}8-5[8:1]*z4[8:1],8,2pp4[8:1]/8>4[8:1],28,
{4}1-5[8:1]*-3v4[8:1],1,7pp8^5[4:1],7,
{8}4h[8:1],,4,5pp5[4:1]*qq5[4:1],5,,,,
{16}6,,,7,,,8,,2h[8:3],,,,1,,1,,,,7h[4:1],,8,,8,,16,,,,
{8}4h[8:5]/5h[8:5],,,,,,4>5[1:1]/5,,4x/B3,B2,B1,B8,B7,B6,,,,,
{16}34,,34,,5,4,5,,1-7[8:1]/7,,,,12,,,,
{16}56,,4,5,4,,23,,1/8-2[8:1],,,,78,,,,
{16}5,,2,3,4,,12,,
{4}1-3[8:1]/8,1-7[8:1]/4,1-3[8:1]/6,1-6[8:1]/4,1-4[8:1]/6,1-6[8:1]/4,1-4[8:1]/6,14,
{8}7,7,8,8,1,1,3,3,4/5>8[4:1],,56,,{16}B5,B4,B3,B2,B1,,,,
{8}8h[4:1],,7,7h[4:1],,6,5,4h[4:1],,2,2,2,5h[2:1],7,7,7,7,,56,5/6^3-7^2[8:11],,
{1},,,
E
