&title=東京テディベア
&artist=Roselia
&first=1.154
&des=JGQ
&lv_5=14
&des_5=JGQ
&inote_5=
(204){4},,,,C,
{8}E4,E5,B3,B5,B2,B6,
,E5,E6,B4,B6,B3,B7,E3,
{4}E8,{8}E2,E1,B2,B8,B3,B7,
,E8,E1,B7,B1,B6,{4}B2,
C,{8}E4,E8,B3,B7,B2,B6,
,E6,E2,B6,B2,B7,{4}B3,
C,{8}B1,B2,B3,B4,B5,B6,
,B8,B7,B6,B5,B4,B3,B2,
{4}B1,{8}E5,E7,B4,B7,B3,B8,
,E3,E5,B2,B5,B1,B6,E1,
{4}E7,{8}B1,B2,B3,B4,B5,B6,
,B8,B7,B6,B5,B4,{4}B3,
C,{8}B8,B1,B7,B2,B6,B3,
,E8/B8,E2/B2,B6/E6,{4}C,5b/1bw5[8:1],
1b,{8}3b/7b,3b/7b,,2b/6b,1b/5b,4bpp7[8:3]/8bpp3[8:3],
,,,,,,{4}4b-8b[8:1],
4/6h[4:1],1pp4[2:1],{8}7,8,,1<5[8:3],
,,{4}5>2[4:1],2<7[4:1],7,
5-2[8:1],5/6h[4:1],{8}1,1,,4/8>4[2:1],
,4,5,5,6,6,{4}7,
5-2[8:1]/8-5[8:1],5/8,{8}1/6,6/1-6[8:1],,5V71[8:3],
,,{4}1q5[4:1],5q1[4:1],1,
{2}2-4[8:1]*-8[8:1],{8}2-6[8:1],,,7h[8:3],
,5,4,{16}4,6,{8}3,3/7,2/6,2/6,
{4}1>5[2:1],6,7,{8}8,8,
,7,{4}7-3[8:1],7,4/8<4[2:1],
3,{8}2,2,,1,1,1h[8:9],
,6,6,6,7,7,7,7,
{4}8bqq5[4:3],4,3,{8}2,2,
,1,{4}1-5[8:1],5/1,3b-6[8:1]/7b-2[8:1],
3b/7b,{8}4b/8b,2b/6b,,3b/7b,4b/8b,5b/1b,
{16},,4,8,3,7,2,6,{8}1,8v3b[8:1],,8b/4b<3[4:3],
,,,,,,4,4h[8:3],
,,{4}5h[4:1],6h[4:1],{8}7,7>6[4:3],
,,,,,,1,1h[4:1],
,7,,,{4}2-5[8:1]/6-1[8:1],{8}2b/6b,A1/A5,
,7/3,{4}3/7,{8},4-1[8:1]/8-5[8:1],,4b/8b,
,2/6,{4}6/2pp1[8:3],{8},5,6,7,
8,7,{16}7,3,7,3,6,2,6,2,5,1,5,1,
{4}4h[2:1],C,{8}1,1bw5b[8:1],{32},,,,A1,E1/B1/E2,B7/C/B3,E6/E5/A6/A4,
{4},{24}4b/8b,7/3,6/2,5/1,,,{8}8x,8xw4b[8:1],{32},,,,A8,E1/B8/E8,B2/C/B6,E4/E5/A3/A5,
{4},{24}1b/5b,6/2,7/3,8/4,,,{8}1x,1x<6[4:1],,6>2[8:3],
,,{4}2<7[4:1],{8}4,4-8[8:1],,4/6h[8:3],
,,{4}1h[4:1],{8}8,8w4b[8:1],{32},,,,A8,E1/B8/E8,B2/C/B6,E4/E5/A3/A5,
{4},{24}5b/1b,2/6,3/7,4/8,,,{8}1x,1xw5b[8:1],{32},,,,A1,E1/B1/E2,B7/C/B3,E6/E5/A6/A4,
{4},{24}4b/8b,7/3,6/2,5/1,,,{8}8x,8xpp3[8:3],,7h[4:1],
,,7,6/4,{16}5,6,{8}5,6/5,6/5,
5/4,4/5,4/3,{16}3,4,2,5,1,6,8,7,{8}8h[3:1],
{24},,,,,,5b/1b,6/2,7/3,8/4,{48},,,,{16}3,8,{8}2,1,1h[3:1],
{24},,,,,,8b/4b,7/3,6/2,5/1,,,{8}4x,4<7[4:1],,7>3[8:3],
,,{4}3<6[4:1],{8}1,1-5[8:1],,1/7h[8:3],
,,3,3/4,6/5,{16}3-8[8:1],4,{8}2,5/3,
,6,5/6,3/4,{16}6-1[8:1],5,{8}7,6/4,3h[4:1],
,6,4/2,5/7,{16}1-5[8:1],8,{8}2,1/7,6,
,4/3,3/4,{16}3,4,{8}2,6/5,{16}6,5,{8}7,
{16}4,5,3,6,3,6,2,7,2,7,{8}1-4[8:1],1,1b/8h[8:3],
,,{4}7h[4:1],6h[4:1],{8}3,2h[8:3],
,,{4}3h[4:1],4h[4:1],{8}6,5/7h[4:1],
,,{4}7/2-7[8:1],2/6-3[8:1],6/1-5[8:1],
{8}1,7h[4:1],,6h[4:1],,5h[8:1],,4,
2,3,4,2,3,4,{16}4,1,4,3,
4,8,4,3,4,7,4,3,{8}4h[8:5],2,1,8,
{16},,8,4,1,5,2,6,3,7,4,8,{8}4,4h[8:3]/8h[8:3],
,,,,,,,,,,{4}C,
,,,C,
,,,C,
,,,C,
,,,C,
,,,C,
{8},,,2b/B4,
,7b/B5,{32}1b/C,2,3,4,5,6,7,8,1,2,3,4,5,6,7,8,1,2,3,4,5,6,7,8,
{4}1w5[32:3],1b/C,{16}8b-4[16:1]/2b-6[16:1],,,8b/2b,,,{8}5bxs1b[4:1],
,,{4}4b/C,{16}2,6,2,6,{8}2,1h[3:1]/5h[3:1],
{24},,,,,,2bx/6bx,3bx/7bx,4bx/8bx,5bx/1bx,,,{8}1x/5x,1xV75[8:1]/5xV31[8:1],,5/1,
,,{4}8/4,{8}3/7,3v8[8:1]/7v4[8:1],,3/7,
,,{4}4b-8b[8:1]/6b-2b[8:1],{64}4b/6b,B4/B6,C,B2/B8,{16}A2/A8,,,{8}3bx/7bx,5bxh[3:1]/1bxh[3:1],
{24},,,,,,2bx/6bx,3bx/7bx,4bx/8bx,5bx/1bx,,,{8}1x/5x,3/7,,4bh[3:1]/8bh[3:1],
{24},,,,,,7bx/3bx,6bx/2bx,5bx/1bx,8bx/4bx,,,{8}4x/8x,2/6,,3b/4b,
{16},,3,4,2,5,3,4,,2,4,3,5,4,{8}6h[8:3],
{16},,,,5,6,4,7,3,8,2,7,{8}1,2b/6b-4[8:1],
,6/2-8[8:1],3,2/7-4[8:1],6,7/3-6[8:1],2,3/8-4[8:1],
7,8/2-5[8:1],1,2/7<4[8:1],8,7/3>8[8:1],2,3/7v4[8:1],
6,7/1-5[8:1],2,1/8-6[8:1],7,8/2-4[8:1],1,2/5,
,6,{16}6,5,6,5,{8}6,6/5,5/4,4/3h[4:1],
,4,3/4,4/5,{16}5,4,{8}5,5/4,5/6h[4:1],
,7,8/6,6/1,{16}2,6,{8}2,3/6,3/6,
,4/3,2/5,{16}3,4,{8}2,6/5,{16}6,5,{8}7,
{16}4,5,2,7,3,6,1,8,3,6,2,7,{4}1-3[8:1]/8qq4[8:5],
8b/1b,4,{8}3,3<7[4:1],,7>4[8:3],
,,{4}4<8[4:1],8>4[4:1],4qq1[2:1],
8-6[8:1],8,{8}5,5-2[8:1]*-8[8:1],,5qq2[4:3],
,1,8,8,7,7,{4}6,
5q1[8:1]/1q5[8:1],1/5,{8}2/6,6v4[8:1]/2v8[8:1],,2/6,
,7,7/1,7,7/2,7,{4}7/3,
6-4[8:1]/2-8[8:1],2/6,2-4[8:1]/6-8[8:1],{8}6/2,A8/A4,
{16},,4,8,4,8,3,7,3,7,2,6,2,6,{8}1,
{4}1/5<1[8:7],{8}2,2,{4}2,{8}3,3,
,4,{4}4,1/5>1[4:5],8,
7,{8}6,6,,5,5,5h[8:5],
,8,8,8,1,1,1,1/5<1[8:7],
,,2,2,{4}2,{8}3,3,
,4,{16}4,8,4,8,{8}4,{16}6,2,6,2,{8}6,
{4}1b/5b,{8}8,6b/2b,,3/5,4/6,5b/7b,
,3/7,{16}2,6,4,8,{8}2,8b/1b,
E
